Marvel’s The Punisher, ซีรียส์ออริจินัลของทาง Netflix ที่จะพาเราดำดิ่งกันเต็มๆ 13 ตอน กับเรื่องราวของชายคนนี้.. ‘แฟรงค์ คาสเซิล’
The Punisher ในเวอร์ชั่นนี้ รับบทการแสดงโดย จอน เบิร์นธัล ซึ่งหลายท่านอาจจะคุ้นหูคุ้นตากับผลงานเขามาบ้าง (ล่าสุดในปีนี้ก็ Baby Driver) และก็ไม่ใช่การเปิดตัวครั้งแรกแต่อย่างใดด้วย เพราะแฟรงค์ คาสเซิล เคยปรากฏเป็นตัวละครหลักไปก่อนแล้ว กับ Marvel’s Daredevil ซีซั่นที่สอง เมื่อปี 2016 ที่ผ่านมา
ด้วยเหตุผลบางอย่างทำให้เขาต้องกลับมาไล่ล่าอดีตและข ับเคลื่อนไปตามความแค้นอีกครั้ง ก็ไม่ได้แย่หรอกที่คนๆ หนึ่งจะจมปลักกับความหลังที่ย้อนไปแก้ไขอะไรไม่ได้ มันไม่ใช่เรื่องของการทำให้ถูกต้องหรือสบายใจ มันไม่มีเหตุผล เขาแค่จะทำ ในสิ่งที่อยากทำ และ อดีตอีกมุมที่เราจะได้เห็นเพิ่มเติม คือช่วงชีวิตที่แฟรงค์เป็นทหารรับใช้ชาติอเมริกัน ส่วนที่ทำได้โดดเด่นเลย คือการถ่ายทอดความรู้สึก ความเป็นอยู่ และอารมณ์แปรปรวนอันแตกต่างกันของเหล่าทหารผ่านศึกออ กมาได้ละเอียดและนุ่มลึก ..บ้างยังค้างคาอยู่ นอนหลับไม่สนิท ปรับตัวกลับไม่ทันเหมือนกับว่าบ้านของเขาคือที่แห่งน ั้นไปแล้ว บ้างก็สูญสามัญสำนึก ราวกับชีวิตประจำวันของเขาไม่ใช่เรื่องจริง!!!


  อดีต#มิตรภาพ#ความว่างเปล่า#เขม่าปืน#ซีรียส์นี้สะท้ อนอะไรๆ ออกมาล้นจอมากกว่าสเกลเรื่องแคบๆ ที่เราเห็น เพราะชีวิตจริงไม่เคยมีปรัชญาหรือเหตุผลมารองรับ ไม่ต้องมาปรุงแต่งรสชาติ ผมว่ามันจริงใจต่อความรู้สึกดี
Cr.by Zreast


Format : Matroska
Format version : Version 4
File size : 11.6 GiB
Duration : 50 min 30 s
Overall bit rate : 32.8 Mb/s
Encoded date : UTC 2018-03-01 00:50:40
Writing application : mkvmerge v19.0.0 ( Brave Captain ) 64-bit
Writing library : libebml v1.3.5 + libmatroska v1.4.8

Video
ID : 1
Format : HEVC
Format/Info : High Efficiency Video Coding
Commercial name : HDR10
Format profile : Main [email protected]@Main
Codec ID : V_MPEGH/ISO/HEVC
Duration : 50 min 25 s
Bit rate : 32.4 Mb/s
Width : 3 840 pixels
Height : 2 160 pixels
Display aspect ratio : 16:9
Frame rate mode : Constant
Frame rate : 23.976 (24000/1001) FPS
Color space : YUV
Chroma subsampling : 4:2:0
Bit depth : 10 bits
Bits/(Pixel*Frame) : 0.163
Stream size : 11.4 GiB (99%)
Writing library : x265 2.6+37-1949157705ce:[Windows][GCC 6.3.0][64 bit] 10bit
Encoding settings : cpuid=1050111 / frame-threads=4 / numa-pools=16,0 / wpp / no-pmode / no-pme / no-psnr / no-ssim / log-level=2 / input-csp=1 / input-res=3840x2160 / interlace=0 / total-frames=72548 / level-idc=0 / high-tier=1 / uhd-bd=0 / ref=5 / no-allow-non-conformance / repeat-headers / annexb / no-aud / no-hrd / info / hash=0 / no-temporal-layers / open-gop / min-keyint=23 / keyint=250 / gop-lookahead=0 / bframes=8 / b-adapt=2 / b-pyramid / bframe-bias=0 / rc-lookahead=40 / lookahead-slices=0 / scenecut=40 / radl=0 / no-intra-refresh / ctu=64 / min-cu-size=8 / rect / amp / max-tu-size=32 / tu-inter-depth=3 / tu-intra-depth=3 / limit-tu=4 / rdoq-level=2 / dynamic-rd=0.00 / no-ssim-rd / signhide / no-tskip / nr-intra=0 / nr-inter=0 / no-constrained-intra / strong-intra-smoothing / max-merge=4 / limit-refs=1 / limit-modes / me=3 / subme=5 / merange=57 / temporal-mvp / weightp / weightb / no-analyze-src-pics / deblock=-3:-3 / sao / no-sao-non-deblock / rd=6 / no-early-skip / rskip / no-fast-intra / no-tskip-fast / no-cu-lossless / b-intra / no-splitrd-skip / rdpenalty=0 / psy-rd=2.00 / psy-rdoq=1.00 / no-rd-refine / no-lossless / cbqpoffs=0 / crqpoffs=0 / rc=crf / crf=18.0 / qcomp=0.80 / qpstep=4 / stats-write=0 / stats-read=0 / ipratio=1.40 / pbratio=1.30 / aq-mode=3 / aq-strength=1.00 / cutree / zone-count=0 / no-strict-cbr / qg-size=16 / no-rc-grain / qpmax=69 / qpmin=0 / no-const-vbv / sar=0 / overscan=0 / videoformat=5 / range=0 / colorprim=9 / transfer=16 / colormatrix=9 / chromaloc=0 / display-window=0 / master-display=G(13250,34500)B(7500,3000)R(34000,16000)WP (15635,16450)L(40000000,50) / max-cll=10000,720 / min-luma=0 / max-luma=1023 / log2-max-poc-lsb=8 / vui-timing-info / vui-hrd-info / slices=1 / no-opt-qp-pps / no-opt-ref-list-length-pps / no-multi-pass-opt-rps / scenecut-bias=0.05 / no-opt-cu-delta-qp / no-aq-motion / hdr / hdr-opt / no-dhdr10-opt / analysis-reuse-level=5 / scale-factor=0 / refine-intra=0 / refine-inter=0 / refine-mv=0 / no-limit-sao / ctu-info=0 / no-lowpass-dct / refine-mv-type=0 / copy-pic=1
Default : Yes
Forced : No
Color range : Limited
Color primaries : BT.2020
Transfer characteristics : PQ
Matrix coefficients : BT.2020 non-constant
Mastering display color primaries : Display P3
Mastering display luminance : min: 0.0050 cd/m2, max: 4000 cd/m2
Maximum Content Light Level : 10000 cd/m2
Maximum Frame-Average Light Level : 720 cd/m2

Audio
ID : 2
Format : E-AC-3 JOC
Format/Info : Enhanced AC-3 with Joint Object Coding
Commercial name : Dolby Digital Plus with Dolby Atmos
Codec ID : A_EAC3
Duration : 50 min 30 s
Bit rate mode : Constant
Bit rate : 448 kb/s
Channel(s) : 6 channels
Channel layout : L R C LFE Ls Rs
Sampling rate : 48.0 kHz
Frame rate : 31.250 FPS (1536 SPF)
Compression mode : Lossy
Stream size : 162 MiB (1%)
Language : English
Service kind : Complete Main
Default : Yes
Forced : No
Complexity index : 16
Number of dynamic objects : 15
Bed channel count : 1 channel
Bed channel configuration : LFE

Text #1
ID : 3
Format : UTF-8
Codec ID : S_TEXT/UTF8
Codec ID/Info : UTF-8 Plain Text
Duration : 48 min 56 s
Bit rate : 57 b/s
Count of elements : 599
Stream size : 20.5 KiB (0%)
Language : English
Default : No
Forced : No

Text #2
ID : 4
Format : UTF-8
Codec ID : S_TEXT/UTF8
Codec ID/Info : UTF-8 Plain Text
Duration : 48 min 57 s
Bit rate : 70 b/s
Count of elements : 721
Stream size : 25.3 KiB (0%)
Title : SDH
Language : English
Default : Yes
Forced : No

Text #3
ID : 5
Format : UTF-8
Codec ID : S_TEXT/UTF8
Codec ID/Info : UTF-8 Plain Text
Duration : 12 s 638 ms
Bit rate : 109 b/s
Count of elements : 5
Stream size : 173 Bytes (0%)
Title : Forced
Language : English
Default : No
Forced : No

Text #4
ID : 6
Format : UTF-8
Codec ID : S_TEXT/UTF8
Codec ID/Info : UTF-8 Plain Text
Duration : 48 min 56 s
Bit rate : 99 b/s
Count of elements : 584
Stream size : 35.6 KiB (0%)
Language : Arabic
Default : No
Forced : No

Text #5
ID : 7
Format : UTF-8
Codec ID : S_TEXT/UTF8
Codec ID/Info : UTF-8 Plain Text
Duration : 48 min 46 s
Bit rate : 87 b/s
Count of elements : 605
Stream size : 31.2 KiB (0%)
Language : Bulgarian
Default : No
Forced : No

Text #6
ID : 8
Format : UTF-8
Codec ID : S_TEXT/UTF8
Codec ID/Info : UTF-8 Plain Text
Duration : 48 min 56 s
Bit rate : 51 b/s
Count of elements : 543
Stream size : 18.5 KiB (0%)
Language : Danish
Default : No
Forced : No

Text #7
ID : 9
Format : UTF-8
Codec ID : S_TEXT/UTF8
Codec ID/Info : UTF-8 Plain Text
Duration : 48 min 56 s
Bit rate : 55 b/s
Count of elements : 545
Stream size : 19.8 KiB (0%)
Language : German
Default : No
Forced : No

Text #8
ID : 10
Format : UTF-8
Codec ID : S_TEXT/UTF8
Codec ID/Info : UTF-8 Plain Text
Duration : 48 min 56 s
Bit rate : 94 b/s
Count of elements : 580
Stream size : 33.8 KiB (0%)
Language : Greek
Default : No
Forced : No

Text #9
ID : 11
Format : UTF-8
Codec ID : S_TEXT/UTF8
Codec ID/Info : UTF-8 Plain Text
Duration : 48 min 56 s
Bit rate : 52 b/s
Count of elements : 574
Stream size : 18.8 KiB (0%)
Language : Spanish
Default : No
Forced : No

Text #10
ID : 12
Format : UTF-8
Codec ID : S_TEXT/UTF8
Codec ID/Info : UTF-8 Plain Text
Duration : 48 min 56 s
Bit rate : 54 b/s
Count of elements : 574
Stream size : 19.7 KiB (0%)
Title : European
Language : Spanish
Default : No
Forced : No

Text #11
ID : 13
Format : UTF-8
Codec ID : S_TEXT/UTF8
Codec ID/Info : UTF-8 Plain Text
Duration : 48 min 56 s
Bit rate : 49 b/s
Count of elements : 480
Stream size : 17.8 KiB (0%)
Language : Finnish
Default : No
Forced : No

Text #12
ID : 14
Format : UTF-8
Codec ID : S_TEXT/UTF8
Codec ID/Info : UTF-8 Plain Text
Duration : 48 min 56 s
Bit rate : 55 b/s
Count of elements : 562
Stream size : 19.8 KiB (0%)
Language : French
Default : No
Forced : No

Text #13
ID : 15
Format : UTF-8
Codec ID : S_TEXT/UTF8
Codec ID/Info : UTF-8 Plain Text
Duration : 48 min 55 s
Bit rate : 97 b/s
Count of elements : 587
Stream size : 34.9 KiB (0%)
Language : Hebrew
Default : No
Forced : No

Text #14
ID : 16
Format : UTF-8
Codec ID : S_TEXT/UTF8
Codec ID/Info : UTF-8 Plain Text
Duration : 48 min 44 s
Bit rate : 55 b/s
Count of elements : 590
Stream size : 19.9 KiB (0%)
Language : Indonesian
Default : No
Forced : No

Text #15
ID : 17
Format : UTF-8
Codec ID : S_TEXT/UTF8
Codec ID/Info : UTF-8 Plain Text
Duration : 48 min 56 s
Bit rate : 55 b/s
Count of elements : 564
Stream size : 19.9 KiB (0%)
Language : Italian
Default : No
Forced : No

Text #16
ID : 18
Format : UTF-8
Codec ID : S_TEXT/UTF8
Codec ID/Info : UTF-8 Plain Text
Duration : 48 min 56 s
Bit rate : 42 b/s
Count of elements : 567
Stream size : 15.4 KiB (0%)
Language : Japanese
Default : No
Forced : No

Text #17
ID : 19
Format : UTF-8
Codec ID : S_TEXT/UTF8
Codec ID/Info : UTF-8 Plain Text
Duration : 48 min 56 s
Bit rate : 57 b/s
Count of elements : 582
Stream size : 20.8 KiB (0%)
Language : Korean
Default : No
Forced : No

Text #18
ID : 20
Format : UTF-8
Codec ID : S_TEXT/UTF8
Codec ID/Info : UTF-8 Plain Text
Duration : 48 min 56 s
Bit rate : 51 b/s
Count of elements : 553
Stream size : 18.4 KiB (0%)
Language : Norwegian Bokmal
Default : No
Forced : No

Text #19
ID : 21
Format : UTF-8
Codec ID : S_TEXT/UTF8
Codec ID/Info : UTF-8 Plain Text
Duration : 48 min 56 s
Bit rate : 47 b/s
Count of elements : 476
Stream size : 17.1 KiB (0%)
Language : Dutch
Default : No
Forced : No

Text #20
ID : 22
Format : UTF-8
Codec ID : S_TEXT/UTF8
Codec ID/Info : UTF-8 Plain Text
Duration : 48 min 56 s
Bit rate : 48 b/s
Count of elements : 560
Stream size : 17.3 KiB (0%)
Language : Polish
Default : No
Forced : No

Text #21
ID : 23
Format : UTF-8
Codec ID : S_TEXT/UTF8
Codec ID/Info : UTF-8 Plain Text
Duration : 48 min 56 s
Bit rate : 53 b/s
Count of elements : 570
Stream size : 19.1 KiB (0%)
Language : Portuguese
Default : No
Forced : No

Text #22
ID : 24
Format : UTF-8
Codec ID : S_TEXT/UTF8
Codec ID/Info : UTF-8 Plain Text
Duration : 48 min 56 s
Bit rate : 52 b/s
Count of elements : 583
Stream size : 18.9 KiB (0%)
Title : Brazilian
Language : Portuguese
Default : No
Forced : No

Text #23
ID : 25
Format : UTF-8
Codec ID : S_TEXT/UTF8
Codec ID/Info : UTF-8 Plain Text
Duration : 48 min 56 s
Bit rate : 53 b/s
Count of elements : 579
Stream size : 19.0 KiB (0%)
Language : Romanian
Default : No
Forced : No

Text #24
ID : 26
Format : UTF-8
Codec ID : S_TEXT/UTF8
Codec ID/Info : UTF-8 Plain Text
Duration : 48 min 56 s
Bit rate : 51 b/s
Count of elements : 547
Stream size : 18.5 KiB (0%)
Language : Swedish
Default : No
Forced : No

Text #25
ID : 27
Format : UTF-8
Codec ID : S_TEXT/UTF8
Codec ID/Info : UTF-8 Plain Text
Duration : 48 min 56 s
Bit rate : 132 b/s
Count of elements : 587
Stream size : 47.4 KiB (0%)
Language : Thai
Default : No
Forced : No

Text #26
ID : 28
Format : UTF-8
Codec ID : S_TEXT/UTF8
Codec ID/Info : UTF-8 Plain Text
Duration : 48 min 56 s
Bit rate : 54 b/s
Count of elements : 577
Stream size : 19.6 KiB (0%)
Language : Turkish
Default : No
Forced : No

Text #27
ID : 29
Format : UTF-8
Codec ID : S_TEXT/UTF8
Codec ID/Info : UTF-8 Plain Text
Duration : 48 min 56 s
Bit rate : 68 b/s
Count of elements : 579
Stream size : 24.7 KiB (0%)
Language : Vietnamese
Default : No
Forced : No

Text #28
ID : 30
Format : UTF-8
Codec ID : S_TEXT/UTF8
Codec ID/Info : UTF-8 Plain Text
Duration : 48 min 56 s
Bit rate : 49 b/s
Count of elements : 585
Stream size : 17.7 KiB (0%)
Title : Simplified
Language : Chinese
Default : No
Forced : No






Download: cornfile
Marvel's The Punisher S01E01 3AM 2160p HDR Netflix WEBRip DD+ Atmos 5.1 x265-TrollUHD.mkv - 11.6 GB
Marvel's The Punisher S01E02 Two Dead Men 2160p HDR Netflix WEBRip DD+ Atmos 5.1 x265-TrollUHD.mkv - 13.1 GB
Marvel's The Punisher S01E03 Kandahar 2160p HDR Netflix WEBRip DD+ Atmos 5.1 x265-TrollUHD.mkv - 11.6 GB
Marvel's The Punisher S01E04 Resupply 2160p HDR Netflix WEBRip DD+ Atmos 5.1 x265-TrollUHD.mkv - 10.1 GB
Marvel's The Punisher S01E05 Gunner 2160p HDR Netflix WEBRip DD+ Atmos 5.1 x265-TrollUHD.mkv - 12.5 GB
Marvel's The Punisher S01E06 The Judas Goat 2160p HDR Netflix WEBRip DD+ Atmos 5.1 x265-TrollUHD.mkv - 12.1 GB
Marvel's The Punisher S01E07 Crosshairs 2160p HDR Netflix WEBRip DD+ Atmos 5.1 x265-TrollUHD.mkv - 10.0 GB
Marvel's The Punisher S01E08 Cold Steel 2160p HDR Netflix WEBRip DD+ Atmos 5.1 x265-TrollUHD.mkv - 11.4 GB
Marvel's The Punisher S01E09 Front Toward Enemy 2160p HDR Netflix WEBRip DD+ Atmos 5.1 x265-TrollUHD.mkv - 12.9 GB
Marvel's The Punisher S01E10 Virtue of the Vicious 2160p HDR Netflix WEBRip DD+ Atmos 5.1 x265-TrollUHD.mkv - 11.5 GB
Marvel's The Punisher S01E11 Danger Close 2160p HDR Netflix WEBRip DD+ Atmos 5.1 x265-TrollUHD.mkv - 11.5 GB
Marvel's The Punisher S01E12 Home 2160p HDR Netflix WEBRip DD+ Atmos 5.1 x265-TrollUHD.mkv - 10.9 GB
Marvel's The Punisher S01E13 Memento Mori 2160p HDR Netflix WEBRip DD+ Atmos 5.1 x265-TrollUHD.mkv - 12.7 GB

Download: mekafile
1
http://www.mekafile.com/dl.php?f=806064bPccO3
2
http://www.mekafile.com/dl.php?f=ff697cbPccBp
3
http://www.mekafile.com/dl.php?f=XTc262bPcdGO
4
http://www.mekafile.com/dl.php?f=s117ccbPcdT7
5
http://www.mekafile.com/dl.php?f=fF7172bPch5n
6
http://www.mekafile.com/dl.php?f=F3e285bPchiO
7
http://www.mekafile.com/dl.php?f=hI391dbPckKE
8
http://www.mekafile.com/dl.php?f=QE33b0bPckys
9
http://www.mekafile.com/dl.php?f=SFea74bPczRK
10
http://www.mekafile.com/dl.php?f=3x0e6dbPcAba
11
http://www.mekafile.com/dl.php?f=rM9294bPcA3u
12
http://www.mekafile.com/dl.php?f=wyfa51bPcAog
13
http://www.mekafile.com/dl.php?f=Vneec8bPcAwa