+ Reply to Thread
Results 1 to 3 of 3
  1. #1
    Administrators Duckload.us's Avatar
    Join Date
    Dec 2010
    Posts
    107,708
    Thanks
    7
    Thanked 112,505 Times in 52,090 Posts

    Question [ฝรั่ง]-Giant (จ้าวแผ่นดิน) 1956## [เสียงอังกฤษ DTS : บรรยายไทยคมชัด + อังกฤษ]-Encode.H.264.1080p. [Modified]-[Soundtrack บรรยายไทย]



    SS


    เรื่องย่อและรีวิว

    พล็อตเรื่อง…..Bick Benedict (Rock Hudson) เจ้าของฟาร์มปศุสัตว์ ขนาดใหญ่ มีพื้นที่มากกว่า 595,000 เอเคอร์ ที่เรียกว่า Benedict Reata เขาได้แต่งงานกับสาวสังคม ที่มีความรู้ และ สวย Leslie Lynnton (Elizabeth Taylor) ทั้งคู่เดินทางออกจาก มารี่แลนท์ พร้อมด้วยม้าคุ่ใจ เพื่อมาตั้งรกรากที่ เท็กซัส Leslie ต้องปรับตัวกับสถาพแวดล้อม อากาศ ที่มีแต่ความยากลำบาก และ ความอคติของพี่สาว Bick ที่คอยจัดการทุกเรื่องทุกอย่างภายในบ้าน Leslie มีความเอื้อเฟื้อเมตตาต่อชาวพื้นเมืองเชื้อสายแม๊กซิ กัน และ ชายหนุ่ม ที่มีบุคคลิกดิบเถื่อนที่แอบหลงรักเธอ Jett Rink (James Dean) ต่อมา Leslie ได้ให้กำเนิด ลูกแฝด ชาย-หญิง และ ลูกสาวคนเล็กอีกหนึ่ง

    Jett Rink เขามีความมุงมั่นที่จะค้นหาน้ำมัน เขาเป็นคู่แค้นกับ Bick เขาประกาศต่อหน้าหลายๆคนว่าสักวันหนึ่งเขาจะต้องร่ำร วยและไปได้ดีกว่า Bick อย่างแน่นอน วันหนึ่งเขาได้ค้นพบน้ำมันและความฝันเขาเป็นจริง Jett ได้ตั้งบริษัทขึ้นมาและขยายธุรกิจนำมันจนร่ำรวย หลังสงครามโลก Bick และ Leslie ชีวิตครอบครัวเริ่มมีปัญหา จวบจนลูกๆของเขาโต แต่ละคนมีวิธีชีวิตที่แตกต่างกันไป ที่มักไม่เจริญรอยตามความต้องการของพ่อแม่ ที่ต่อนำมาซึ่งความขัดแย้งภายในครอบครัว

    หนังเรื่องนี้ พยายามชี้ประเด็นความขัดแย้ง ระหว่าง Jett Rink คู่แค้นที่มีแต่ความริษยา และ อิจฉาที่มีภรรยาที่สวย ถึงแม้ว่าต่อมาเขาจะร่ำรวยแต่สุดท้ายเขากลับไม่มีควา มสุขในชีวิตเลย และชูประเด็นเหยียดผิว ที่ลูกชายคนเดียวของ Bick ไปแต่งงานกันชาวพิ้นเมือง แม็กซิกัน และ ลูกสาวของ Bick สองคน ไปแต่งงานกับหนุ่มคาวบอยธรรมดา อีกหนึ่งคนไปตกหลุมรัก Jett Rink ชายหนุ่มรุ่นพ่อ และ อีกประเด็นหนึ่งคือ พยายามเน้นจุดสำคัญของ Leslie ที่เป็นตัวแทนของสาวแกร่ง ที่พยายามฟันฝ่าปัญหาต่างๆภายในครอบครัว

    Bick Benedict และ Jett Rink เป็นตัวละคร ที่สะท้อนให้เห็นแง่มุมของการดำเนินของวิธีชีวิต ของคนที่ดำเนินชีวิตอย่างมีหลักการและความถูกต้อง แต่อีกคนหนึ่ง ที่ปมชีวิตมีแต่ความขัดแย้งในตัวที่หาคำตอบให้ตัวเอง ไม่ได้ และ ที่สำคัญ หลักของ มนุษยธรรม ที่ทุกๆคนควรคำนึงถึง ไม่ว่าเขาจะเป็นชนเชื้อชาติใดแต่เขาก็คือมนุษย์เหมือ นกับเรานั้นเอง

    ไจเเอนท์ ภาพยนตร์สุดคลาสสิคแนวคราม่า เป็นหนังที่ประสบความสำเร็จด้านรายได้และได้รับความน ิยม เป็นผลงานของบริษัท วอร์เนอร์บราเดอร์ ที่ออกฉายในปี 1956 กับผลงานการกำกับของ จอร์จ สตีเว้นท์ เขาได้นำพาบริษัท วอร์เนอร์บราเดอร์ฝ่ามรสุมลูกใหญ่ ที่หนังหลายๆเรื่องประสบปัญหาขาดทุน และ สตีเว้นท์ ที่ทำให้หนังเรื่องนี้ได้รับรางวัล Academy, ถึง 10 รางวัล ,ไจเเอนท์ เป็นหนังเรื่องสุดท้ายของ เจมส์ ดีน ที่เป็นไอคอนของใครต่อหลายคน เขาเสียชีวิตตั้งแต่ยังหนุ่ม ด้วยอุบัติเหตุทางรถยนตร์ ในปี 1955 มีผลงานเด่นที่สร้างขื่อจากเรื่อง East of Eden เพราะเหตุผลนี้ที่ทำให้เขาเป็นอมตะอยู่ถึงทุกวันนี้ ……………….

    ไจเเอนท์ มีตัวละครหลักๆอยู่สามคน ประกอบด้วย เอลิซาเบธ เทย์เลอร์ (Elizabeth Taylo)r, ร็อก ฮัทสัน (Rock Hudson), เจมส์ ดีน (James Dean ) เจมส์ ดีน ถูกเสนอชื่อเพื่อชิงรางวัลในขณะที่เขาเสียขีวิตแล้วแ ละเป็นบุคคลเดียวในประวัติศาตร์ภาพยนตร์ฮอลลี่วู๊ด และดาราสมทบ Carroll Baker, Jane Withers, Chill Wills, Mercedes McCambridge, Dennis Hopper, Sal Mineo, Rod Taylor and Earl Holliman.

    รายละเอียดภาพยนตร์
    นักแสดง: Elizabeth Taylor, Rock Hudson, James Dean, Mercedes McCambridge, Dennis Hopper, Carroll Baker, Fran Bennett

    ผุ้กำกับ: George Stevens

    ผู้เผลิต: George Stevens

    ความยาวของหนัง 3 ชั่วโมง 21 นาที

    จับภาพตัวภาพยนตร์


    MediaInfo :
    Video
    ID : 1
    Format : AVC
    Format/Info : Advanced Video Codec
    Format profile : [email protected]
    Format settings : CABAC / 4 Ref Frames
    Format settings, CABAC : Yes
    Format settings, RefFrames : 4 frames
    Codec ID : V_MPEG4/ISO/AVC
    Duration : 3 h 21 min
    Bit rate : 8 603 kb/s
    Width : 1 792 pixels
    Height : 1 080 pixels
    Display aspect ratio : 5:3
    Frame rate mode : Constant
    Frame rate : 23.976 (24000/1001) FPS
    Color space : YUV
    Chroma subsampling : 4:2:0
    Bit depth : 8 bits
    Scan type : Progressive
    Bits/(Pixel*Frame) : 0.185
    Stream size : 12.1 GiB (85%)
    Writing library : x264 core 138 r2358 9e941d1
    Encoding settings : cabac=1 / ref=4 / deblock=1:0:0 / analyse=0x3:0x133 / me=umh / subme=7 / psy=1 / psy_rd=1.00:0.00 / mixed_ref=1 / me_range=16 / chroma_me=1 / trellis=1 / 8x8dct=1 / cqm=0 / deadzone=21,11 / fast_pskip=0 / chroma_qp_offset=-2 / threads=18 / lookahead_threads=3 / sliced_threads=0 / nr=0 / decimate=1 / interlaced=0 / bluray_compat=0 / constrained_intra=0 / bframes=3 / b_pyramid=2 / b_adapt=2 / b_bias=0 / direct=3 / weightb=1 / open_gop=0 / weightp=2 / keyint=250 / keyint_min=23 / scenecut=40 / intra_refresh=0 / rc_lookahead=50 / rc=2pass / mbtree=1 / bitrate=8603 / ratetol=1.0 / qcomp=0.60 / qpmin=0 / qpmax=69 / qpstep=4 / cplxblur=20.0 / qblur=0.5 / ip_ratio=1.40 / aq=1:1.00
    Language : English
    Default : Yes
    Forced : No

    Audio
    ID : 2
    Format : DTS
    Format/Info : Digital Theater Systems
    Codec ID : A_DTS
    Duration : 3 h 21 min
    Bit rate mode : Constant
    Bit rate : 1 509 kb/s
    Channel(s) : 2 channels
    Channel layout : Lt Rt
    Sampling rate : 48.0 kHz
    Frame rate : 93.750 FPS (512 SPF)
    Bit depth : 24 bits
    Compression mode : Lossy
    Stream size : 2.12 GiB (15%)
    Language : English
    Default : Yes
    Forced : No
    Text #1
    ID : 3
    Format : PGS
    Muxing mode : zlib
    Codec ID : S_HDMV/PGS
    Codec ID/Info : Picture based subtitle format used on BDs/HD-DVDs
    Duration : 3 h 13 min
    Bit rate : 33.5 kb/s
    Count of elements : 3722
    Stream size : 46.4 MiB (0%)
    Title : AngsanaUPC
    Default : Yes
    Forced : No

    Text #2
    ID : 4
    Format : PGS
    Muxing mode : zlib
    Codec ID : S_HDMV/PGS
    Codec ID/Info : Picture based subtitle format used on BDs/HD-DVDs
    Duration : 3 h 13 min
    Bit rate : 29.8 kb/s
    Count of elements : 3722
    Stream size : 41.3 MiB (0%)
    Title : Tahoma
    Language : Thai
    Default : No
    Forced : No

    Text #3
    ID : 5
    Format : VobSub
    Muxing mode : zlib
    Codec ID : S_VOBSUB
    Codec ID/Info : Picture based subtitle format used on DVDs
    Duration : 3 h 13 min
    Bit rate : 7 512 b/s
    Count of elements : 1861
    Stream size : 10.4 MiB (0%)
    Title : AngsanaUPC
    Language : Thai
    Default : No
    Forced : No

    Text #4
    ID : 6
    Format : VobSub
    Muxing mode : zlib
    Codec ID : S_VOBSUB
    Codec ID/Info : Picture based subtitle format used on DVDs
    Duration : 3 h 13 min
    Bit rate : 6 699 b/s
    Count of elements : 1861
    Stream size : 9.27 MiB (0%)
    Title : Tahoma
    Language : Thai
    Default : No
    Forced : No
    Text #5
    ID : 7
    Format : UTF-8
    Codec ID : S_TEXT/UTF8
    Codec ID/Info : UTF-8 Plain Text
    Duration : 3 h 16 min
    Bit rate : 56 b/s
    Count of elements : 2357
    Stream size : 81.5 KiB (0%)
    Language : English
    Default : No
    Forced : No

    Menu
    00:00:00.000 : en:00:00:00.000
    00:02:09.546 : en:00:02:09.546
    00:04:49.581 : en:00:04:49.581
    00:07:56.935 : en:00:07:56.935
    00:10:14.322 : en:00:10:14.322
    00:11:31.274 : en:00:11:31.274
    00:16:34.076 : en:00:16:34.076
    00:20:03.619 : en:00:20:03.619
    00:22:07.952 : en:00:22:07.952
    00:24:58.497 : en:00:24:58.497
    00:27:41.451 : en:00:27:41.451
    00:34:47.961 : en:00:34:47.961
    00:36:20.387 : en:00:36:20.387
    00:39:25.989 : en:00:39:25.989
    00:41:33.408 : en:00:41:33.408
    00:43:19.305 : en:00:43:19.305
    00:45:38.861 : en:00:45:38.861
    00:55:23.529 : en:00:55:23.529
    01:03:46.156 : en:01:03:46.156
    01:06:06.421 : en:01:06:06.421
    01:10:57.170 : en:01:10:57.170
    01:14:59.203 : en:01:14:59.203
    01:18:26.952 : en:01:18:26.952
    01:19:51.704 : en:01:19:51.704
    01:27:09.891 : en:01:27:09.891
    01:31:04.876 : en:01:31:04.876
    01:35:27.972 : en:01:35:27.972
    01:38:59.100 : en:01:38:59.100
    01:43:00.716 : en:01:43:00.716
    01:45:46.173 : en:01:45:46.173
    01:48:29.503 : en:01:48:29.503
    01:49:58.967 : en:01:49:58.967
    01:59:37.587 : en:01:59:37.587
    02:02:20.542 : en:02:02:20.542
    02:08:00.214 : en:02:08:00.214
    02:10:06.382 : en:02:10:06.382
    02:14:51.125 : en:02:14:51.125
    02:17:37.624 : en:02:17:37.624
    02:19:27.568 : en:02:19:27.568
    02:22:38.300 : en:02:22:38.300
    02:27:38.266 : en:02:27:38.266
    02:30:01.576 : en:02:30:01.576
    02:32:40.860 : en:02:32:40.860
    02:38:52.106 : en:02:38:52.106
    02:40:52.101 : en:02:40:52.101
    02:44:54.051 : en:02:44:54.051
    02:50:41.022 : en:02:50:41.022
    02:52:31.383 : en:02:52:31.383
    02:54:39.969 : en:02:54:39.969
    02:59:56.077 : en:02:59:56.077
    03:04:30.393 : en:03:04:30.393
    03:07:43.294 : en:03:07:43.294
    03:11:55.546 : en:03:11:55.546
    03:15:22.210 : en:03:15:22.210
    03:18:01.036 : en:03:18:01.036
    03:18:24.518 : en:03:18:24.518


    http://cornfile.com/aamsm0okh6gm

    http://www.mekafile.com/dl.php?f=8A4b30bOOSdZ

  2. The Following 2 Users Say Thank You to Duckload.us For This Useful Post:

    noi54 (02-04-2019), smakha (07-09-2019)

  3. #2
    Senior Member
    Join Date
    Jun 2012
    Posts
    1,220
    Thanks
    0
    Thanked 1 Time in 1 Post
    ขอบคุณครับ

  4. #3
    Senior Member
    Join Date
    Jun 2014
    Posts
    1,159
    Thanks
    0
    Thanked 0 Times in 0 Posts
    ขอบคุณครับ

+ Reply to Thread

Thread Information

Users Browsing this Thread

There are currently 1 users browsing this thread. (0 members and 1 guests)

     

Posting Permissions

  • You may not post new threads
  • You may not post replies
  • You may not post attachments
  • You may not edit your posts