+ Reply to Thread
Results 1 to 2 of 2
  1. #1
    Administrators Duckload.us's Avatar
    Join Date
    Dec 2010
    Posts
    100,954
    Thanks
    9
    Thanked 102,515 Times in 49,026 Posts

    Question [ฝรั่ง]-•[Netflix]• School of Rock 2003 ครูซ่า เปิดตำราร็อค [เสียงไทย 5.1 + เสียงอังกฤษ 5.1]-[ไม่มีบรรยาย]-[MASTER From Netflix]-WEB-DL.H.264.1080p.





    Quote:












    Quote:

    ดิวอี้ (Jack Black) เป็นศิลปินไส้แห้ง loser ไม่ประสบความสำเร็จและไม่มีงานทำ วันหนึ่งเขาได้แอบอ้างเป็นเพื่อนสนิทเพื่อเข้าทำงานเ ป็นครูสอนหนังสือในโรงเรียนไฮโซ ซึ่งที่นี่เองที่เขาค้นพบว่านักเรียนในห้องล้วนมีแวว เป็นวงร็อคได้ เขาจึงฟอร์มวงขึ้นมาเพื่อไปประกวดดนตรีที่เขาใฝ่ฝันอ ยากเป็นผู้ชนะ



    Quote:
    *ดู INFO Report คลิ๊ก!*

    File size : 6.90 GiB
    Duration : 1 h 49 min
    Overall bit rate : 9 010 kb/s

    Video
    ID : 1
    Format : AVC
    Format/Info : Advanced Video Codec
    Format profile : [email protected]
    Format settings, CABAC : Yes
    Format settings, ReFrames : 3 frames
    Codec ID : V_MPEG4/ISO/AVC
    Duration : 1 h 49 min
    Bit rate : 7 473 kb/s
    Width : 1 920 pixels
    Height : 1 080 pixels
    Display aspect ratio : 16:9
    Frame rate mode : Constant
    Frame rate : 23.976 FPS
    Color space : YUV
    Chroma subsampling : 4:2:0
    Bit depth : 8 bits
    Scan type : Progressive
    Bits/(Pixel*Frame) : 0.150
    Stream size : 5.72 GiB (83%)
    Default : Yes
    Forced : No

    Audio #1
    ID : 2
    Format : E-AC-3
    Format/Info : Enhanced Audio Coding 3
    Format settings, Endianness : Big
    Codec ID : A_EAC3
    Duration : 1 h 49 min
    Bit rate mode : Constant
    Bit rate : 192 kb/s
    Channel(s) : 6 channels
    Channel positions : Front: L C R, Side: L R, LFE
    Sampling rate : 48.0 kHz
    Frame rate : 187.500 FPS (256 spf)
    Compression mode : Lossy
    Delay relative to video : -41 ms
    Stream size : 151 MiB (2%)
    Language : English
    Service kind : Complete Main
    Default : Yes
    Forced : No

    Audio #2
    ID : 3
    Format : AAC
    Format/Info : Advanced Audio Codec
    Format profile : HE-AAC / LC
    Codec ID : A_AAC
    Duration : 1 h 49 min
    Bit rate : 192 kb/s
    Channel(s) : 6 channels
    Channel(s)_Original : 24 channels
    Channel positions : Front: 9, Side: L R, Back: 13
    Sampling rate : 48.0 kHz / 24.0 kHz
    Frame rate : 23.438 FPS (1024 spf)
    Compression mode : Lossy
    Delay relative to video : -41 ms
    Stream size : 150 MiB (2%)
    Language : English
    Default : No
    Forced : No

    Audio #3
    ID : 4
    Format : E-AC-3
    Format/Info : Enhanced Audio Coding 3
    Format settings, Endianness : Big
    Codec ID : A_EAC3
    Duration : 1 h 49 min
    Bit rate mode : Constant
    Bit rate : 192 kb/s
    Channel(s) : 6 channels
    Channel positions : Front: L C R, Side: L R, LFE
    Sampling rate : 48.0 kHz
    Frame rate : 187.500 FPS (256 spf)
    Compression mode : Lossy
    Delay relative to video : -41 ms
    Stream size : 151 MiB (2%)
    Language : Thai
    Service kind : Complete Main
    Default : No
    Forced : No

    Audio #4
    ID : 5
    Format : AAC
    Format/Info : Advanced Audio Codec
    Format profile : HE-AAC / LC
    Codec ID : A_AAC
    Duration : 1 h 49 min
    Bit rate : 192 kb/s
    Channel(s) : 6 channels
    Channel positions : Front: L C R, Side: L R, LFE
    Sampling rate : 48.0 kHz / 24.0 kHz
    Frame rate : 23.438 FPS (1024 spf)
    Compression mode : Lossy
    Delay relative to video : -41 ms
    Stream size : 150 MiB (2%)
    Language : Thai
    Default : No
    Forced : No

    Audio #5
    ID : 6
    Format : AC-3
    Format/Info : Audio Coding 3
    Format settings, Endianness : Big
    Codec ID : A_AC3
    Duration : 1 h 49 min
    Bit rate mode : Constant
    Bit rate : 384 kb/s
    Channel(s) : 6 channels
    Channel positions : Front: L C R, Side: L R, LFE
    Sampling rate : 48.0 kHz
    Frame rate : 31.250 FPS (1536 spf)
    Bit depth : 16 bits
    Compression mode : Lossy
    Delay relative to video : -41 ms
    Stream size : 301 MiB (4%)
    Language : English
    Service kind : Complete Main
    Default : No
    Forced : No

    Audio #6
    ID : 7
    Format : AC-3
    Format/Info : Audio Coding 3
    Format settings, Endianness : Big
    Codec ID : A_AC3
    Duration : 1 h 49 min
    Bit rate mode : Constant
    Bit rate : 384 kb/s
    Channel(s) : 6 channels
    Channel positions : Front: L C R, Side: L R, LFE
    Sampling rate : 48.0 kHz
    Frame rate : 31.250 FPS (1536 spf)
    Bit depth : 16 bits
    Compression mode : Lossy
    Delay relative to video : -41 ms
    Stream size : 301 MiB (4%)
    Language : Thai
    Service kind : Complete Main
    Default : No
    Forced : No


    http://cornfile.com/4yqjbbgbnom5
    http://www.mekafile.com/dl.php?f=gIfe81bR7VaW fix2

  2. The Following 4 Users Say Thank You to Duckload.us For This Useful Post:

    bigbang06 (01-31-2019), gaszolineskywalker (02-17-2019), kappa (02-23-2019), sawara (01-30-2019)

  3. #2
    Senior Member
    Join Date
    Dec 2013
    Posts
    167
    Thanks
    100
    Thanked 0 Times in 0 Posts
    ขอบคุณครับ

+ Reply to Thread

Thread Information

Users Browsing this Thread

There are currently 1 users browsing this thread. (0 members and 1 guests)

     

Posting Permissions

  • You may not post new threads
  • You may not post replies
  • You may not post attachments
  • You may not edit your posts