+ Reply to Thread
Results 1 to 2 of 2
  1. #1
    Administrators Duckload.us's Avatar
    Join Date
    Dec 2010
    Posts
    101,723
    Thanks
    9
    Thanked 103,609 Times in 49,413 Posts

    Question (*չ*NEW*)-Golden Job (2018) ѧÿѴҷͧ-[--HEVC-X265 1080p bluay.mkv-]-[Sound:Chinese/Thai AC3 5.1:MASTER::Modifide]-[SUB:Eng:SRT/TEXT-ASS]-[§ From MASTER]








    Golden Job (2018)
    Huang jin xiong di (original title)
    1h 40min | Action, Adventure | 28 September 2018 (USA)
    Director: Kar Lok Chin
    Writers: Susan Chan, Chi-Yin Cheung | 5 more credits
    Stars: Ekin Cheng, Jordan Chan, Michael Tse

    Ǵ˹ѧ : ͤ- ҹ: Ekin Cheng, Jordan Chan, Michael TseӡѺ: Kar Lok Chin : Ҿѹ 2562
    Ѻҧ͹ѹ ١觵价áԨöѤչ ͷй仪ҡͧҾǡ ͧǡѺŻѵþ͢öѺ ѺͷͧŤ ǡѹⴹ͡һ鹷ͧ ͹ʹԷ ҹǡҵͧ͡ҧ͹ ͤ١ͧ



    Golden Job[2018]1080p. X265 BluRay.mkv
    Format : Matroska
    Format version : Version 4
    File size : 1.37 GiB
    Duration : 1 h 39 min
    Overall bit rate : 1 979 kb/s
    Movie name : Gold Cup
    Encoded date : UTC 2019-02-07 15:14:38 / UTC 2019-02-07T08:48:35Z

    Video
    ID : 1
    Format : HEVC
    Format/Info : High Efficiency Video Coding
    Format profile : [email protected]@Main
    Codec ID : V_MPEGH/ISO/HEVC
    Duration : 1 h 39 min
    Bit rate : 1 338 kb/s
    Width : 1 920 pixels
    Height : 816 pixels
    Display aspect ratio : 2.35:1
    Frame rate mode : Constant
    Frame rate : 24.000 FPS
    Color space : YUV
    Chroma subsampling : 4:2:0
    Bit depth : 8 bits
    Bits/(Pixel*Frame) : 0.036
    Stream size : 950 MiB (68%)
    Title : Golden.Job [2018] X265 1080p.BluRay
    Writing library : x265 2.6:[Windows][GCC 7.3.0][64 bit] 8bit+10bit+12bit

    Language : Chinese
    Default : Yes
    Forced : No
    Color range : Limited
    Color primaries : BT.709
    Transfer characteristics : BT.709
    Matrix coefficients : BT.709

    Audio #1
    ID : 2
    Format : AC-3
    Format/Info : Audio Coding 3
    Commercial name : Dolby Digital
    Codec ID : A_AC3
    Duration : 1 h 39 min
    Bit rate mode : Constant
    Bit rate : 320 kb/s
    Channel(s) : 6 channels
    Channel layout : L R C LFE Ls Rs
    Sampling rate : 44.1 kHz
    Frame rate : 28.711 FPS (1536 SPF)
    Bit depth : 16 bits
    Compression mode : Lossy
    Stream size : 227 MiB (16%)
    Title : 5.1 AC3
    Language : Thai
    Service kind : Complete Main
    Default : Yes
    Forced : No

    Audio #2
    ID : 3
    Format : AC-3
    Format/Info : Audio Coding 3
    Commercial name : Dolby Digital
    Codec ID : A_AC3
    Duration : 1 h 39 min
    Bit rate mode : Constant
    Bit rate : 320 kb/s
    Channel(s) : 6 channels
    Channel layout : L R C LFE Ls Rs
    Sampling rate : 44.1 kHz
    Frame rate : 28.711 FPS (1536 SPF)
    Bit depth : 16 bits
    Compression mode : Lossy
    Stream size : 227 MiB (16%)
    Title : 5.1 AC3
    Language : Chinese
    Service kind : Complete Main
    Default : No
    Forced : No

    Text #1
    ID : 4
    Format : UTF-8
    Codec ID : S_TEXT/UTF8
    Codec ID/Info : UTF-8 Plain Text
    Duration : 1 h 32 min
    Bit rate : 49 b/s
    Count of elements : 1005
    Stream size : 33.5 KiB (0%)
    Title : SRT
    Language : English
    Default : Yes
    Forced : No

    Text #2
    ID : 5
    Format : ASS
    Codec ID : S_TEXT/ASS
    Codec ID/Info : Advanced Sub Station Alpha
    Duration : 1 h 32 min
    Bit rate : 81 b/s
    Count of elements : 1007
    Compression mode : Lossless
    Stream size : 55.1 KiB (0%)
    Title : Text/ASS
    Language : English
    Default : No
    Forced : No


    http://cornfile.com/qjfrx85olvnv
    http://www.mekafile.com/dl.php?f=gl69d7bQ66U8

  2. #2
    Senior Member
    Join Date
    Jun 2014
    Posts
    463
    Thanks
    0
    Thanked 0 Times in 0 Posts
    ͺسѺ

Thread Information

Users Browsing this Thread

There are currently 1 users browsing this thread. (0 members and 1 guests)

     

Posting Permissions

  • You may not post new threads
  • You may not post replies
  • You may not post attachments
  • You may not edit your posts