+ Reply to Thread
Results 1 to 2 of 2
  1. #1
    Senior Member
    Join Date
    Feb 2018
    Posts
    746
    Thanks
    0
    Thanked 270 Times in 198 Posts

    [* ใหม่* ] [BluRay Master เสียงไทย 5.1] [ไฟล์ไม่ซ้ำใคร!] Widows (2018) : หม้ายสาวล้างบัญชีหนี้ [เสียง:ไทย 5.1 มาสเตอร์,อังกฤษ DTS-HD MA 7.1 - บรรยายไทย,อังกฤษ] [เสียงไทย + ซับไทย From BluRay Master+ซับ PGS]

    [เสียงไทย + ซับไทย From BluRay Master]












    Mini HD
    ((ไฟล์คุณภาพคมชัดไม่ซ้ำใคร!))


    [email protected]mkv
    Format : Matroska
    Format version : Version 4 / Version 2
    File size : 4.86 GiB
    Duration : 2 h 9 min
    Overall bit rate : 5 371 kb/s
    Movie name : [email protected]
    Encoded date : UTC 2019-02-10 03:27:10
    Writing application : mkvmerge v28.2.0 ('The Awakening') 64-bit
    Writing library : libebml v1.3.6 + libmatroska v1.4.9
    Cover : Yes
    Attachments : cover.jpg

    Video
    ID : 1
    Format : AVC
    Format/Info : Advanced Video Codec
    Format profile : [email protected]
    Format settings, CABAC : Yes
    Format settings, RefFrames : 5 frames
    Codec ID : V_MPEG4/ISO/AVC
    Duration : 2 h 9 min
    Bit rate : 4 200 kb/s
    Width : 1 920 pixels
    Height : 804 pixels

    Display aspect ratio : 2.40:1
    Frame rate mode : Constant
    Frame rate : 23.976 (24000/1001) FPS
    Color space : YUV
    Chroma subsampling : 4:2:0
    Bit depth : 8 bits
    Scan type : Progressive
    Bits/(Pixel*Frame) : 0.113
    Stream size : 3.69 GiB (76%)
    Title : @@Mdified by [email protected]
    Writing library : x264 core 155 r2901 7d0ff22
    Encoding settings : cabac=1 / ref=5 / deblock=1:0:0 / analyse=0x3:0x113 / me=hex / subme=8 / psy=1 / psy_rd=1.00:0.00 / mixed_ref=1 / me_range=16 / chroma_me=1 / trellis=2 / 8x8dct=1 / cqm=0 / deadzone=21,11 / fast_pskip=1 / chroma_qp_offset=-2 / threads=12 / lookahead_threads=2 / sliced_threads=0 / nr=0 / decimate=1 / interlaced=0 / bluray_compat=0 / constrained_intra=0 / bframes=3 / b_pyramid=2 / b_adapt=1 / b_bias=0 / direct=3 / weightb=1 / open_gop=0 / weightp=2 / keyint=240 / keyint_min=24 / scenecut=40 / intra_refresh=0 / rc_lookahead=50 / rc=abr / mbtree=1 / bitrate=4200 / ratetol=1.0 / qcomp=0.60 / qpmin=0 / qpmax=69 / qpstep=4 / vbv_maxrate=62500 / vbv_bufsize=78125 / nal_hrd=none / filler=0 / ip_ratio=1.40 / aq=1:1.00
    Language : English
    Default : Yes
    Forced : No
    Color range : Limited
    Color primaries : BT.709
    Transfer characteristics : BT.709
    Matrix coefficients : BT.709

    Audio #1
    ID : 2
    Format : AC-3
    Format/Info : Audio Coding 3
    Format settings, Endianness : Big
    Codec ID : A_AC3
    Duration : 2 h 9 min
    Bit rate mode : Constant
    Bit rate : 448 kb/s
    Channel(s) : 6 channels
    Channel positions : Front: L C R, Side: L R, LFE
    Sampling rate : 48.0 kHz
    Frame rate : 31.250 FPS (1536 SPF)
    Bit depth : 16 bits
    Compression mode : Lossy
    Stream size : 415 MiB (8%)
    Title : Thai AC3 5.1 BluRay Master
    Language : Thai

    Service kind : Complete Main
    Default : Yes
    Forced : Yes

    Audio #2
    ID : 3
    Format : DTS
    Format/Info : Digital Theater Systems
    Mode : 16
    Format settings, Endianness : Big
    Codec ID : A_DTS
    Duration : 2 h 9 min
    Bit rate mode : Constant
    Bit rate : 768 kb/s
    Channel(s) : 6 channels
    Channel positions : Front: L C R, Side: L R, LFE
    Sampling rate : 48.0 kHz
    Frame rate : 93.750 FPS (512 SPF)
    Bit depth : 24 bits
    Compression mode : Lossy
    Stream size : 712 MiB (14%)
    Title : Eng DTS
    Language : English

    Default : No
    Forced : No

    Text #1
    ID : 4
    Format : PGS
    Muxing mode : zlib
    Codec ID : S_HDMV/PGS
    Codec ID/Info : Picture based subtitle format used on BDs/HD-DVDs
    Duration : 2 h 5 min
    Bit rate : 46.6 kb/s
    Count of elements : 4212
    Stream size : 42.0 MiB (1%)
    Title : Eng
    Language : English
    Default : No
    Forced : No

    Text #2
    ID : 5
    Format : PGS
    Muxing mode : zlib
    Codec ID : S_HDMV/PGS
    Codec ID/Info : Picture based subtitle format used on BDs/HD-DVDs
    Duration : 2 h 8 min
    Bit rate : 48.0 kb/s
    Count of elements : 3284
    Stream size : 44.0 MiB (1%)
    Title : Thai PGS BluRay Master
    Language : Thai

    Default : Yes
    Forced : Yes

    Text #3
    ID : 6
    Format : PGS
    Muxing mode : zlib
    Codec ID : S_HDMV/PGS
    Codec ID/Info : Picture based subtitle format used on BDs/HD-DVDs
    Duration : 2 h 8 min
    Bit rate : 47.8 kb/s
    Count of elements : 3284
    Stream size : 43.8 MiB (1%)
    Title : Thai PGS BluRay Master LOW
    Language : Thai
    Default : No
    Forced : No

    Text #4
    ID : 7
    Format : VobSub
    Muxing mode : zlib
    Codec ID : S_VOBSUB
    Codec ID/Info : Picture based subtitle format used on DVDs
    Duration : 2 h 8 min
    Bit rate : 7 350 b/s
    Count of elements : 1642
    Stream size : 6.74 MiB (0%)
    Title : Thai 1080p
    Language : Thai
    Default : No
    Forced : No

    Text #5
    ID : 8
    Format : VobSub
    Muxing mode : zlib
    Codec ID : S_VOBSUB
    Codec ID/Info : Picture based subtitle format used on DVDs
    Duration : 2 h 8 min
    Bit rate : 7 350 b/s
    Count of elements : 1642
    Stream size : 6.74 MiB (0%)
    Title : Thai 1080p LOW
    Language : Thai
    Default : No
    Forced : No

    Text #6
    ID : 9
    Format : VobSub
    Muxing mode : zlib
    Codec ID : S_VOBSUB
    Codec ID/Info : Picture based subtitle format used on DVDs
    Duration : 2 h 8 min
    Bit rate : 2 239 b/s
    Count of elements : 1642
    Stream size : 2.05 MiB (0%)
    Title : Thai 480p
    Language : Thai
    Default : No
    Forced : No

    Text #7
    ID : 10
    Format : VobSub
    Muxing mode : zlib
    Codec ID : S_VOBSUB
    Codec ID/Info : Picture based subtitle format used on DVDs
    Duration : 2 h 8 min
    Bit rate : 2 239 b/s
    Count of elements : 1642
    Stream size : 2.05 MiB (0%)
    Title : Thai 480p LOW
    Language : Thai
    Default : No
    Forced : No

    ★ ☆ ✮Modified By EntHD_ProMaster@enthdmovieclub✮ ☆ ★
















    Full HD เสียง DTS-HD MA 7.1
    ((ไฟล์คุณภาพคมชัดไม่ซ้ำใคร!))


    [email protected]dmovieclub.mkv
    Format : Matroska
    Format version : Version 4 / Version 2
    File size : 16.1 GiB
    Duration : 2 h 9 min
    Overall bit rate mode : Variable
    Overall bit rate : 17.8 Mb/s
    Movie name : [email protected]dmovieclub
    Encoded date : UTC 2019-02-10 05:03:24
    Writing application : mkvmerge v13.0.0 ('The Juggler') 64bit
    Writing library : libebml v1.3.4 + libmatroska v1.4.5
    Cover : Yes
    Attachments : cover.jpg

    Video
    ID : 1
    Format : AVC
    Format/Info : Advanced Video Codec
    Format profile : [email protected]
    Format settings : CABAC / 5 Ref Frames
    Format settings, CABAC : Yes
    Format settings, ReFrames : 5 frames
    Codec ID : V_MPEG4/ISO/AVC
    Duration : 2 h 9 min
    Bit rate : 12.5 Mb/s
    Width : 1 920 pixels
    Height : 804 pixe
    ls
    Display aspect ratio : 2.40:1
    Frame rate mode : Constant
    Frame rate : 23.976 (24000/1001) FPS
    Color space : YUV
    Chroma subsampling : 4:2:0
    Bit depth : 8 bits
    Scan type : Progressive
    Bits/(Pixel*Frame) : 0.338
    Stream size : 11.3 GiB (70%)
    Title : @@Mdified by [email protected]ub
    Writing library : x264 core 148 r2665kMod a01e339
    Encoding settings : cabac=1 / ref=5 / deblock=1:-3:-3 / analyse=0x3:0x133 / me=umh / subme=11 / psy=1 / fade_compensate=0.00 / psy_rd=0.85:0.00 / mixed_ref=1 / me_range=48 / chroma_me=1 / trellis=2 / 8x8dct=1 / cqm=0 / deadzone=21,11 / fast_pskip=0 / chroma_qp_offset=-2 / threads=24 / lookahead_threads=4 / sliced_threads=0 / nr=0 / decimate=0 / interlaced=0 / bluray_compat=0 / constrained_intra=0 / fgo=0 / bframes=8 / b_pyramid=2 / b_adapt=2 / b_bias=0 / direct=3 / weightb=1 / open_gop=0 / weightp=2 / keyint=240 / keyint_min=24 / scenecut=40 / intra_refresh=0 / rc=2pass / mbtree=0 / bitrate=12500 / ratetol=1.0 / qcomp=0.70 / qpmin=0 / qpmax=69 / qpstep=4 / cplxblur=20.0 / qblur=0.5 / ip_ratio=1.20 / pb_ratio=1.20 / aq=3:0.80
    Language : English
    Default : Yes
    Forced : No

    Audio #1
    ID : 2
    Format : AC-3
    Format/Info : Audio Coding 3
    Commercial name : Dolby Digital
    Codec ID : A_AC3
    Duration : 2 h 9 min
    Bit rate mode : Constant
    Bit rate : 448 kb/s
    Channel(s) : 6 channels
    Channel layout : L R C LFE Ls Rs
    Sampling rate : 48.0 kHz
    Frame rate : 31.250 FPS (1536 SPF)
    Bit depth : 16 bits
    Compression mode : Lossy
    Stream size : 415 MiB (3%)
    Title : Thai AC3 5.1 BluRay Master
    Language : Thai

    Service kind : Complete Main
    Default : Yes
    Forced : Yes

    Audio #2
    ID : 3
    Format : DTS XLL
    Format/Info : Digital Theater Systems
    Commercial name : DTS-HD Master Audio
    Codec ID : A_DTS
    Duration : 2 h 9 min
    Bit rate mode : Variable
    Bit rate : 4 732 kb/s
    Channel(s) : 8 channels
    Channel layout : C L R LFE Lb Rb Lss Rss
    Sampling rate : 48.0 kHz
    Frame rate : 93.750 FPS (512 SPF)
    Bit depth : 24 bits
    Compression mode : Lossless
    Stream size : 4.28 GiB (27%)
    Title : Eng DTS-HD MA 7.1
    Language : English

    Default : No
    Forced : No

    Text #1
    ID : 4
    Format : PGS
    Muxing mode : zlib
    Codec ID : S_HDMV/PGS
    Codec ID/Info : Picture based subtitle format used on BDs/HD-DVDs
    Duration : 2 h 5 min
    Bit rate : 46.6 kb/s
    Count of elements : 4212
    Stream size : 42.0 MiB (0%)
    Title : Eng
    Language : English
    Default : No
    Forced : No

    Text #2
    ID : 5
    Format : PGS
    Muxing mode : zlib
    Codec ID : S_HDMV/PGS
    Codec ID/Info : Picture based subtitle format used on BDs/HD-DVDs
    Duration : 2 h 8 min
    Bit rate : 48.0 kb/s
    Count of elements : 3284
    Stream size : 44.0 MiB (0%)
    Title : Thai PGS BluRay Master
    Language : Thai
    Default : Yes
    Forced : Yes

    Text #3
    ID : 6
    Format : PGS
    Muxing mode : zlib
    Codec ID : S_HDMV/PGS
    Codec ID/Info : Picture based subtitle format used on BDs/HD-DVDs
    Duration : 2 h 8 min
    Bit rate : 47.8 kb/s
    Count of elements : 3284
    Stream size : 43.8 MiB (0%)
    Title : Thai PGS BluRay Master LOW
    Language : Thai

    Default : No
    Forced : No

    Text #4
    ID : 7
    Format : VobSub
    Muxing mode : zlib
    Codec ID : S_VOBSUB
    Codec ID/Info : Picture based subtitle format used on DVDs
    Duration : 2 h 8 min
    Bit rate : 7 350 b/s
    Count of elements : 1642
    Stream size : 6.74 MiB (0%)
    Title : Thai 1080p
    Language : Thai
    Default : No
    Forced : No

    Text #5
    ID : 8
    Format : VobSub
    Muxing mode : zlib
    Codec ID : S_VOBSUB
    Codec ID/Info : Picture based subtitle format used on DVDs
    Duration : 2 h 8 min
    Bit rate : 7 350 b/s
    Count of elements : 1642
    Stream size : 6.74 MiB (0%)
    Title : Thai 1080p LOW
    Language : Thai
    Default : No
    Forced : No

    Text #6
    ID : 9
    Format : VobSub
    Muxing mode : zlib
    Codec ID : S_VOBSUB
    Codec ID/Info : Picture based subtitle format used on DVDs
    Duration : 2 h 8 min
    Bit rate : 2 239 b/s
    Count of elements : 1642
    Stream size : 2.05 MiB (0%)
    Title : Thai 480p
    Language : Thai
    Default : No
    Forced : No

    Text #7
    ID : 10
    Format : VobSub
    Muxing mode : zlib
    Codec ID : S_VOBSUB
    Codec ID/Info : Picture based subtitle format used on DVDs
    Duration : 2 h 8 min
    Bit rate : 2 239 b/s
    Count of elements : 1642
    Stream size : 2.05 MiB (0%)
    Title : Thai 480p LOW
    Language : Thai
    Default : No
    Forced : No

    ★ ☆ ✮Modified By EntHD_ProMaster@enthdmovieclub✮ ☆ ★








    BDRM Remux Full Bitrate

    W[email protected]enthdmovieclub.mkv
    Format : Matroska
    Format version : Version 4 / Version 2
    File size : 29.7 GiB
    Duration : 2 h 9 min
    Overall bit rate mode : Variable
    Overall bit rate : 32.8 Mb/s
    Movie name : W[email protected]enthdmovieclub
    Encoded date : UTC 2019-02-10 04:09:23
    Writing application : mkvmerge v13.0.0 ('The Juggler') 64bit
    Writing library : libebml v1.3.4 + libmatroska v1.4.5
    Cover : Yes
    Attachments : cover.jpg

    Video
    ID : 1
    Format : AVC
    Format/Info : Advanced Video Codec
    Format profile : [email protected]
    Format settings : CABAC / 4 Ref Frames
    Format settings, CABAC : Yes
    Format settings, ReFrames : 4 frames
    Codec ID : V_MPEG4/ISO/AVC
    Duration : 2 h 9 min
    Bit rate mode : Variable
    Bit rate : 26.8 Mb/s
    Maximum bit rate : 33.0 Mb/s
    Width : 1 920 pixels
    Height : 1 080 pixels

    Display aspect ratio : 16:9
    Frame rate mode : Constant
    Frame rate : 23.976 (24000/1001) FPS
    Color space : YUV
    Chroma subsampling : 4:2:0
    Bit depth : 8 bits
    Scan type : Progressive
    Bits/(Pixel*Frame) : 0.539
    Stream size : 24.2 GiB (82%)
    Title : @@Mdified by [email protected]
    Language : English
    Default : Yes
    Forced : No

    Audio #1
    ID : 2
    Format : AC-3
    Format/Info : Audio Coding 3
    Commercial name : Dolby Digital
    Codec ID : A_AC3
    Duration : 2 h 9 min
    Bit rate mode : Constant
    Bit rate : 448 kb/s
    Channel(s) : 6 channels
    Channel layout : L R C LFE Ls Rs
    Sampling rate : 48.0 kHz
    Frame rate : 31.250 FPS (1536 SPF)
    Bit depth : 16 bits
    Compression mode : Lossy
    Stream size : 415 MiB (1%)
    Title : Thai AC3 5.1 BluRay Master
    Language : Thai

    Service kind : Complete Main
    Default : Yes
    Forced : Yes

    Audio #2
    ID : 3
    Format : DTS XLL
    Format/Info : Digital Theater Systems
    Commercial name : DTS-HD Master Audio
    Codec ID : A_DTS
    Duration : 2 h 9 min
    Bit rate mode : Variable
    Bit rate : 4 732 kb/s
    Channel(s) : 8 channels
    Channel layout : C L R LFE Lb Rb Lss Rss
    Sampling rate : 48.0 kHz
    Frame rate : 93.750 FPS (512 SPF)
    Bit depth : 24 bits
    Compression mode : Lossless
    Stream size : 4.28 GiB (14%)
    Title : Eng DTS-HD MA 7.1
    Language : English

    Default : No
    Forced : No

    Audio #3
    ID : 4
    Format : DTS
    Format/Info : Digital Theater Systems
    Codec ID : A_DTS
    Duration : 2 h 9 min
    Bit rate mode : Constant
    Bit rate : 768 kb/s
    Channel(s) : 6 channels
    Channel layout : C L R Ls Rs LFE
    Sampling rate : 48.0 kHz
    Frame rate : 93.750 FPS (512 SPF)
    Bit depth : 24 bits
    Compression mode : Lossy
    Stream size : 712 MiB (2%)
    Title : Eng DTS
    Language : English
    Default : No
    Forced : No

    Text #1
    ID : 5
    Format : PGS
    Muxing mode : zlib
    Codec ID : S_HDMV/PGS
    Codec ID/Info : Picture based subtitle format used on BDs/HD-DVDs
    Duration : 2 h 5 min
    Bit rate : 46.6 kb/s
    Count of elements : 4212
    Stream size : 42.0 MiB (0%)
    Title : Eng
    Language : English
    Default : No
    Forced : No

    Text #2
    ID : 6
    Format : PGS
    Muxing mode : zlib
    Codec ID : S_HDMV/PGS
    Codec ID/Info : Picture based subtitle format used on BDs/HD-DVDs
    Duration : 2 h 8 min
    Bit rate : 48.0 kb/s
    Count of elements : 3284
    Stream size : 44.0 MiB (0%)
    Title : Thai PGS BluRay Master
    Language : Thai

    Default : Yes
    Forced : Yes

    Text #3
    ID : 7
    Format : PGS
    Muxing mode : zlib
    Codec ID : S_HDMV/PGS
    Codec ID/Info : Picture based subtitle format used on BDs/HD-DVDs
    Duration : 2 h 8 min
    Bit rate : 47.8 kb/s
    Count of elements : 3284
    Stream size : 43.8 MiB (0%)
    Title : Thai PGS BluRay Master LOW
    Language : Thai
    Default : No
    Forced : No

    Text #4
    ID : 8
    Format : VobSub
    Muxing mode : zlib
    Codec ID : S_VOBSUB
    Codec ID/Info : Picture based subtitle format used on DVDs
    Duration : 2 h 8 min
    Bit rate : 7 350 b/s
    Count of elements : 1642
    Stream size : 6.74 MiB (0%)
    Title : Thai 1080p
    Language : Thai
    Default : No
    Forced : No

    Text #5
    ID : 9
    Format : VobSub
    Muxing mode : zlib
    Codec ID : S_VOBSUB
    Codec ID/Info : Picture based subtitle format used on DVDs
    Duration : 2 h 8 min
    Bit rate : 7 350 b/s
    Count of elements : 1642
    Stream size : 6.74 MiB (0%)
    Title : Thai 1080p LOW
    Language : Thai
    Default : No
    Forced : No

    Text #6
    ID : 10
    Format : VobSub
    Muxing mode : zlib
    Codec ID : S_VOBSUB
    Codec ID/Info : Picture based subtitle format used on DVDs
    Duration : 2 h 8 min
    Bit rate : 2 239 b/s
    Count of elements : 1642
    Stream size : 2.05 MiB (0%)
    Title : Thai 480p
    Language : Thai
    Default : No
    Forced : No

    Text #7
    ID : 11
    Format : VobSub
    Muxing mode : zlib
    Codec ID : S_VOBSUB
    Codec ID/Info : Picture based subtitle format used on DVDs
    Duration : 2 h 8 min
    Bit rate : 2 239 b/s
    Count of elements : 1642
    Stream size : 2.05 MiB (0%)
    Title : Thai 480p LOW
    Language : Thai
    Default : No
    Forced : No

    ★ ☆ ✮Modified By EntHD_ProMaster@enthdmovieclub✮ ☆ ★








    ภาพยนตร์อาชญากรรม ระทึกขวัญ เรื่องราวเกี่ยวกับสตรีสี่คนที่ไม่มีอะไรเหมือนกัน นอกจากหนี้ที่สามีผู้ตายจากทิ้งไว้ให้จากอาชญากรรมที ่พวกเขาก่อเอาไว้ ากอยู่ในเมืองชิคาโกยุคร่วมสมัย ในช่วงเวลาแห่งความสับสนอลหม่าน ความตึงเครียดเกิดขึ้นเมื่อ เวโรนิก้า, อลิซ, ลินดา และ แบลล์ นำชะตาของพวกตนมาไว้ในมือตัวเอง และรวมกันเพื่อสร้างอนาคตในแบบของตนเอง

    ---------------------------------------------------------------------------------------------------------------

    ***ข้อแนะนำในการโหลดไฟล์จากเว็บต่างๆ***

    ###ควรใช้ IDM ในการโหลด และควรตั้งค่าเริ่มต้นเชื่อมต่อ ตั้งแต่ 8 ขึ้นไป ส่วนในกรณีที่ IDM ไม่ขึ้นตอนกดโหลดให้ติดตั้งส่วนขยายของ IDM ในเบราว์เซอร์ที่ใช้ ##



    MiniHD

    http://cornfile.com/q52skgbod4vn

    Full HD DTS-HD MA 7.1

    http://cornfile.com/ejzmh77ofv2r


    BDRM Remux Full Bitrate

    http://cornfile.com/7zp61aaia9bs


    >>สมัคร VIP cornfile <<

    >> วิธีสมัคร VIP cornfile <<




    MINI-HD

    1 PART

    DOWNLOAD




    MINI-HD

    1 PART

    DOWNLOAD


    ติดตามอัพเดตเรื่องอื่นๆได้ที่

    https://enthdmovieclub.blogspot.com/

  2. The Following User Says Thank You to @@[email protected]@ For This Useful Post:

    beer181235 (02-10-2019)

  3. #2
    Senior Member beer181235's Avatar
    Join Date
    Aug 2012
    Posts
    240
    Thanks
    3,072
    Thanked 0 Times in 0 Posts
    -แร่มเบย ขอบคุณจ๋าาา
    Beer > > I Like Movie Max'z. LoveYou > > DuckLoad

+ Reply to Thread

Thread Information

Users Browsing this Thread

There are currently 1 users browsing this thread. (0 members and 1 guests)

     

Posting Permissions

  • You may not post new threads
  • You may not post replies
  • You may not post attachments
  • You may not edit your posts