Die Hard เป็นภาพยนตร์ชุดแนวโลดโผน นำแสดงโดยบรูซ วิลลิส ในบท จอห์น แมคเคลน ตำรวจนิวยอร์กและลอสแอนเจลิส ปัจจุบันมีทั้งหมด 5 ภาค Die Hard เป็นชุดภาพยนตร์ที่ทำเงินมากที่สุดตลอดกาลในอันดับที ่ 42 ด้วยรายได้กว่า 1,400 ล้านดอลลาร์สหรัฐฯ ทั่วโลก


General
Complete name : [DESB] Die Hard (1988-2013) [Collection][email protected] Emperor
Format : Matroska
Format version : Version 4 / Version 2
File size : 3.91 GiB
Duration : 2 h 12 min
Overall bit rate : 4 236 kb/s
Movie name : Die Hard (1988) [email protected] Emperor
Encoded date : UTC 2019-02-09 01:19:38
Writing application : mkvmerge v10.0.0 ( To Drown In You ) 64bit
Writing library : libebml v1.3.4 + libmatroska v1.4.5
Cover : Yes
Attachments : cover.jpg

Video
ID : 1
Format : AVC
Format/Info : Advanced Video Codec
Format profile : [email protected]
Format settings : CABAC / 8 Ref Frames
Format settings, CABAC : Yes
Format settings, RefFrames : 8 frames
Codec ID : V_MPEG4/ISO/AVC
Duration : 2 h 12 min
Bit rate : 3 012 kb/s
Width : 1 916 pixels
Height : 812 pixels
Display aspect ratio : 2.35:1
Frame rate mode : Constant
Frame rate : 23.976 (24000/1001) FPS
Color space : YUV
Chroma subsampling : 4:2:0
Bit depth : 8 bits
Scan type : Progressive
Bits/(Pixel*Frame) : 0.081
Stream size : 2.78 GiB (71%)
Title : Die Hard (1988) [email protected] Emperor
Writing library : x264 core 146 r2538 121396c
Encoding settings : cabac=1 / ref=8 / deblock=1:-1:-1 / analyse=0x3:0x133 / me=tesa / subme=11 / psy=1 / psy_rd=1.00:0.15 / mixed_ref=1 / me_range=24 / chroma_me=1 / trellis=2 / 8x8dct=1 / cqm=0 / deadzone=21,11 / fast_pskip=1 / chroma_qp_offset=-3 / threads=9 / lookahead_threads=1 / sliced_threads=0 / nr=0 / decimate=1 / interlaced=0 / bluray_compat=0 / constrained_intra=0 / bframes=5 / b_pyramid=2 / b_adapt=2 / b_bias=0 / direct=3 / weightb=1 / open_gop=0 / weightp=2 / keyint=250 / keyint_min=23 / scenecut=40 / intra_refresh=0 / rc_lookahead=60 / rc=2pass / mbtree=1 / bitrate=3012 / ratetol=1.0 / qcomp=0.60 / qpmin=0 / qpmax=69 / qpstep=4 / cplxblur=20.0 / qblur=0.5 / ip_ratio=1.40 / aq=1:1.30
Language : English
Default : Yes
Forced : No

Audio #1
Title : Thai Dolby 5.1 ch
Language : Thai

Audio #2
Title : Eng DTS
Language : English

Text #1
Title : Thai Vob 1080p
Language : Thai

Text #2
Title : Thai Vob 480p
Language : Thai

Text #3
Title : Thai Vob 720p
Language : Thai

Text #4
Title : Thai PGS
Language : Thai

Text #5
Title : Eng PGS
Language : English



Die Hard 2 (1990) / ดาย ฮาร์ด 2 อึดเต็มพิกัด (1990)

General
Complete name : [DESB] Die Hard (1988-2013) [Collection][email protected] Emperor
Format : Matroska
Format version : Version 4 / Version 2
File size : 3.84 GiB
Duration : 2 h 3 min
Overall bit rate : 4 452 kb/s
Movie name : Die Hard 2 (1990) [email protected] Emperor
Encoded date : UTC 2019-02-09 01:36:02
Writing application : mkvmerge v10.0.0 ( To Drown In You ) 64bit
Writing library : libebml v1.3.4 + libmatroska v1.4.5
Cover : Yes
Attachments : cover.jpg

Video
ID : 1
Format : AVC
Format/Info : Advanced Video Codec
Format profile : [email protected]
Format settings : CABAC / 8 Ref Frames
Format settings, CABAC : Yes
Format settings, RefFrames : 8 frames
Codec ID : V_MPEG4/ISO/AVC
Duration : 2 h 3 min
Bit rate : 3 227 kb/s
Width : 1 920 pixels
Height : 812 pixels
Display aspect ratio : 2.35:1
Frame rate mode : Constant
Frame rate : 23.976 (24000/1001) FPS
Color space : YUV
Chroma subsampling : 4:2:0
Bit depth : 8 bits
Scan type : Progressive
Bits/(Pixel*Frame) : 0.086
Stream size : 2.78 GiB (72%)
Title : Die Hard 2 (1990) [email protected] Emperor
Writing library : x264 core 146 r2538 121396c
Encoding settings : cabac=1 / ref=8 / deblock=1:-1:-1 / analyse=0x3:0x133 / me=tesa / subme=11 / psy=1 / psy_rd=1.00:0.15 / mixed_ref=1 / me_range=24 / chroma_me=1 / trellis=2 / 8x8dct=1 / cqm=0 / deadzone=21,11 / fast_pskip=1 / chroma_qp_offset=-3 / threads=9 / lookahead_threads=1 / sliced_threads=0 / nr=0 / decimate=1 / interlaced=0 / bluray_compat=0 / constrained_intra=0 / bframes=5 / b_pyramid=2 / b_adapt=2 / b_bias=0 / direct=3 / weightb=1 / open_gop=0 / weightp=2 / keyint=250 / keyint_min=23 / scenecut=40 / intra_refresh=0 / rc_lookahead=60 / rc=2pass / mbtree=1 / bitrate=3227 / ratetol=1.0 / qcomp=0.60 / qpmin=0 / qpmax=69 / qpstep=4 / cplxblur=20.0 / qblur=0.5 / ip_ratio=1.40 / aq=1:1.30
Language : English
Default : Yes
Forced : No

Audio #1
Title : Thai Dolby 5.1 ch
Language : Thai

Audio #2
Title : Eng DTS
Language : English

Text #1
Title : Thai Vob 1080p
Language : Thai

Text #2
Title : Thai Vob 480p
Language : Thai

Text #3
Title : Thai Vob 720p
Language : Thai

Text #4
Title : Thai PGS
Language : Thai

Text #5
Title : Eng PGS
Language : English



Die Hard 3 With a Vengeance (1995) / ดาย ฮาร์ด 3 แค้นได้ก็ตายยาก (1995)

General
Complete name : [DESB] Die Hard (1988-2013) [Collection][email protected] Emperor
Format : Matroska
Format version : Version 4 / Version 2
File size : 3.89 GiB
Duration : 2 h 8 min
Overall bit rate : 4 332 kb/s
Movie name : Die Hard 3 With a Vengeance (1995) [email protected] Emperor
Encoded date : UTC 2019-02-09 01:56:46
Writing application : mkvmerge v10.0.0 ( To Drown In You ) 64bit
Writing library : libebml v1.3.4 + libmatroska v1.4.5
Cover : Yes
Attachments : cover.jpg

Video
ID : 1
Format : AVC
Format/Info : Advanced Video Codec
Format profile : [email protected]
Format settings : CABAC / 8 Ref Frames
Format settings, CABAC : Yes
Format settings, RefFrames : 8 frames
Codec ID : V_MPEG4/ISO/AVC
Duration : 2 h 8 min
Bit rate : 3 098 kb/s
Width : 1 916 pixels
Height : 816 pixels
Display aspect ratio : 2.35:1
Frame rate mode : Constant
Frame rate : 23.976 (24000/1001) FPS
Color space : YUV
Chroma subsampling : 4:2:0
Bit depth : 8 bits
Scan type : Progressive
Bits/(Pixel*Frame) : 0.083
Stream size : 2.78 GiB (71%)
Title : Die Hard 3 With a Vengeance (1995) [email protected] Emperor
Writing library : x264 core 146 r2538 121396c
Encoding settings : cabac=1 / ref=8 / deblock=1:-1:-1 / analyse=0x3:0x133 / me=tesa / subme=11 / psy=1 / psy_rd=1.00:0.15 / mixed_ref=1 / me_range=24 / chroma_me=1 / trellis=2 / 8x8dct=1 / cqm=0 / deadzone=21,11 / fast_pskip=1 / chroma_qp_offset=-3 / threads=9 / lookahead_threads=1 / sliced_threads=0 / nr=0 / decimate=1 / interlaced=0 / bluray_compat=0 / constrained_intra=0 / bframes=5 / b_pyramid=2 / b_adapt=2 / b_bias=0 / direct=3 / weightb=1 / open_gop=0 / weightp=2 / keyint=250 / keyint_min=23 / scenecut=40 / intra_refresh=0 / rc_lookahead=60 / rc=2pass / mbtree=1 / bitrate=3098 / ratetol=1.0 / qcomp=0.60 / qpmin=0 / qpmax=69 / qpstep=4 / cplxblur=20.0 / qblur=0.5 / ip_ratio=1.40 / aq=1:1.30
Language : English
Default : Yes
Forced : No

Audio #1
Title : Thai Dolby 5.1 ch
Language : Thai

Audio #2
Title : Eng DTS
Language : English

Text #1
Title : Thai Vob 1080p
Language : Thai

Text #2
Title : Thai Vob 480p
Language : Thai

Text #3
Title : Thai Vob 720p
Language : Thai

Text #4
Title : Thai PGS
Language : Thai

Text #5
Title : Eng PGS
Language : English



Die Hard 4 Live Free or Die Hard (2007) / ดาย ฮาร์ด 4.0 ปลุกอึด ตายยาก (2007)

General
Complete name : [DESB] Die Hard (1988-2013) [Collection][email protected] Emperor
Format : Matroska
Format version : Version 4 / Version 2
File size : 3.88 GiB
Duration : 2 h 8 min
Overall bit rate : 4 318 kb/s
Movie name : Die Hard 4 Live Free or Die Harde (2007) [email protected] Emperor
Encoded date : UTC 2019-02-09 02:16:06
Writing application : mkvmerge v10.0.0 ( To Drown In You ) 64bit
Writing library : libebml v1.3.4 + libmatroska v1.4.5
Cover : Yes
Attachments : cover.jpg

Video
ID : 1
Format : AVC
Format/Info : Advanced Video Codec
Format profile : [email protected]
Format settings : CABAC / 8 Ref Frames
Format settings, CABAC : Yes
Format settings, RefFrames : 8 frames
Codec ID : V_MPEG4/ISO/AVC
Duration : 2 h 8 min
Bit rate : 3 094 kb/s
Width : 1 916 pixels
Height : 800 pixels
Display aspect ratio : 2.40:1
Frame rate mode : Constant
Frame rate : 23.976 (24000/1001) FPS
Color space : YUV
Chroma subsampling : 4:2:0
Bit depth : 8 bits
Scan type : Progressive
Bits/(Pixel*Frame) : 0.084
Stream size : 2.78 GiB (72%)
Title : Die Hard 4 Live Free or Die Harde (2007) [email protected] Emperor
Writing library : x264 core 146 r2538 121396c
Encoding settings : cabac=1 / ref=8 / deblock=1:-1:-1 / analyse=0x3:0x133 / me=tesa / subme=11 / psy=1 / psy_rd=1.00:0.15 / mixed_ref=1 / me_range=24 / chroma_me=1 / trellis=2 / 8x8dct=1 / cqm=0 / deadzone=21,11 / fast_pskip=1 / chroma_qp_offset=-3 / threads=9 / lookahead_threads=1 / sliced_threads=0 / nr=0 / decimate=1 / interlaced=0 / bluray_compat=0 / constrained_intra=0 / bframes=5 / b_pyramid=2 / b_adapt=2 / b_bias=0 / direct=3 / weightb=1 / open_gop=0 / weightp=2 / keyint=250 / keyint_min=23 / scenecut=40 / intra_refresh=0 / rc_lookahead=60 / rc=2pass / mbtree=1 / bitrate=3094 / ratetol=1.0 / qcomp=0.60 / qpmin=0 / qpmax=69 / qpstep=4 / cplxblur=20.0 / qblur=0.5 / ip_ratio=1.40 / aq=1:1.30
Language : English
Default : Yes
Forced : No

Audio #1
Title : Thai Dolby 5.1 ch
Language : Thai

Audio #2
Title : Eng DTS
Language : English

Text #1
Title : Thai Vob 1080p
Language : Thai

Text #2
Title : Thai Vob 480p
Language : Thai

Text #3
Title : Thai Vob 720p
Language : Thai

Text #4
Title : Thai PGS
Language : Thai

Text #5
Title : Eng PGS
Language : English



Die Hard 5 A Good Day to Die Hard (2013) / ดาย ฮาร์ด 5 วันดีมหาวินาศ คนอึดตายยาก (2013)

General
Complete name : [DESB] Die Hard (1988-2013) [Collection][email protected] Emperor
Format : Matroska
Format version : Version 4 / Version 2
File size : 3.79 GiB
Duration : 1 h 41 min
Overall bit rate : 5 363 kb/s
Movie name : Die Hard 5 A Good Day to Die Hard (2013) [email protected] Emperor
Encoded date : UTC 2019-02-09 02:40:50
Writing application : mkvmerge v10.0.0 ( To Drown In You ) 64bit
Writing library : libebml v1.3.4 + libmatroska v1.4.5
Cover : Yes
Attachments : cover.jpg

Video
ID : 1
Format : AVC
Format/Info : Advanced Video Codec
Format profile : [email protected]
Format settings : CABAC / 8 Ref Frames
Format settings, CABAC : Yes
Format settings, RefFrames : 8 frames
Codec ID : V_MPEG4/ISO/AVC
Duration : 1 h 41 min
Bit rate : 4 143 kb/s
Width : 1 920 pixels
Height : 1 040 pixels
Display aspect ratio : 1.85:1
Frame rate mode : Constant
Frame rate : 23.976 (24000/1001) FPS
Color space : YUV
Chroma subsampling : 4:2:0
Bit depth : 8 bits
Scan type : Progressive
Bits/(Pixel*Frame) : 0.087
Stream size : 2.93 GiB (77%)
Title : Die Hard 5 A Good Day to Die Hard (2013) [email protected] Emperor
Writing library : x264 core 146 r2538 121396c
Encoding settings : cabac=1 / ref=8 / deblock=1:-1:-1 / analyse=0x3:0x133 / me=tesa / subme=11 / psy=1 / psy_rd=1.00:0.15 / mixed_ref=1 / me_range=24 / chroma_me=1 / trellis=2 / 8x8dct=1 / cqm=0 / deadzone=21,11 / fast_pskip=1 / chroma_qp_offset=-3 / threads=9 / lookahead_threads=1 / sliced_threads=0 / nr=0 / decimate=1 / interlaced=0 / bluray_compat=0 / constrained_intra=0 / bframes=5 / b_pyramid=2 / b_adapt=2 / b_bias=0 / direct=3 / weightb=1 / open_gop=0 / weightp=2 / keyint=250 / keyint_min=23 / scenecut=40 / intra_refresh=0 / rc_lookahead=60 / rc=2pass / mbtree=1 / bitrate=4143 / ratetol=1.0 / qcomp=0.60 / qpmin=0 / qpmax=69 / qpstep=4 / cplxblur=20.0 / qblur=0.5 / ip_ratio=1.40 / aq=1:1.30
Language : English
Default : Yes
Forced : No

Audio #1
Title : Thai Dolby 5.1 ch
Language : Thai

Audio #2
Title : Eng DTS
Language : English

Text #1
Title : Thai Vob 1080p
Language : Thai

Text #2
Title : Thai Vob 480p
Language : Thai

Text #3
Title : Thai Vob 720p
Language : Thai

Text #4
Title : Thai PGS
Language : Thai

Text #5
Title : Eng PGS
Language : English





































Die Hard (1988) [email protected] Emperor.mkv - 3.9 GB
Die Hard 2 (1990) [email protected] Emperor.mkv - 3.8 GB
Die Hard 3 With a Vengeance (1995) [email protected] Emperor.mkv - 3.9 GB
Die Hard 4 Live Free or Die Harde (2007) [email protected] Emperor.mkv - 3.9 GB
Die Hard 5 A Good Day to Die Hard (2013) [email protected] Emperor.mkv - 3.8 GB

1 http://www.mekafile.com/dl.php?f=x96215bQdFSd
2 http://www.mekafile.com/dl.php?f=jA8db1bQdGqc
3 http://www.mekafile.com/dl.php?f=Sv2ce0bQdGXX
4 http://www.mekafile.com/dl.php?f=1vd771bQdHvP
5 http://www.mekafile.com/dl.php?f=X52addbQdHia