------------------------------------------------------------------------------------------------




Taken - ෤ह ѡ

/Type :
Action/Adventure
Suspense Mystery
Thriller

ҧ/Studio : 20th Century Fox

´ͧ/Synopsis
仡ҡ÷͵ͧ з١Ƕ١ѡҵ Ѻѹ ʹյѺǽѹ¡繨ԧ §ͧ 㹡ҵǤѺҨҡꧤʴ ѭáѹеͧ ͧ зµ㹻

ѡʴ/Actors :
- Liam Neeson
- Maggie Grace
- Famke Janssen
- Leland Orser
- Jon Gries

ӡѺ/Directors :
- Pierre Morel


General
Unique ID : 183692458910321251411453385705805191347 (0x8A31E176B13B6638A32EB25ACA2E18B3)
Complete name : B:download-finish[m-HD] Taken Trilogy 2008-2014 Extended Cut BluRay 720p AC3 x264-CtHtsTaken 2008 Extended Harder Cut BluRay 720p AC3 x264-CtHts.mkv
Format : Matroska
Format version : Version 4 / Version 2
File size : 2.40 GiB
Duration : 1h 33mn
Overall bit rate : 3 670 Kbps
Movie name : Taken 2008 Extended Harder Cut BluRay 720p AC3 x264-CtHts
Encoded date : UTC 2013-02-07 15:16:29
Writing application : mkvmerge v6.0.0 ( Coming Up For Air ) built on Jan 20 2013 09:52:00
Writing library : libebml v1.3.0 + libmatroska v1.4.0

Video
ID : 1
Format : AVC
Format/Info : Advanced Video Codec
Format profile : [email protected]
Format settings, CABAC : Yes
Format settings, ReFrames : 3 frames
Codec ID : V_MPEG4/ISO/AVC
Duration : 1h 33mn
Bit rate : 2 750 Kbps
Width : 1 280 pixels
Height : 544 pixels
Display aspect ratio : 2.35:1
Frame rate mode : Constant
Frame rate : 23.976 fps
Color space : YUV
Chroma subsampling : 4:2:0
Bit depth : 8 bits
Scan type : Progressive
Bits/(Pixel*Frame) : 0.165
Stream size : 1.77 GiB (74%)
Title : Taken 2008 Extended Harder Cut BluRay 720p AC3 x264-CtHts
Writing library : x264 core 116 r2019M 9cc407d
Encoding settings : cabac=1 / ref=3 / deblock=1:0:0 / analyse=0x3:0x133 / me=hex / subme=7 / psy=1 / psy_rd=1.00:0.20 / mixed_ref=1 / me_range=16 / chroma_me=1 / trellis=1 / 8x8dct=1 / cqm=0 / deadzone=21,11 / fast_pskip=1 / chroma_qp_offset=-3 / threads=8 / sliced_threads=0 / nr=0 / decimate=1 / interlaced=0 / bluray_compat=0 / constrained_intra=0 / bframes=3 / b_pyramid=1 / b_adapt=2 / b_bias=0 / direct=3 / weightb=1 / open_gop=0 / weightp=2 / keyint=230 / keyint_min=23 / scenecut=40 / intra_refresh=0 / rc_lookahead=40 / rc=2pass / mbtree=1 / bitrate=2750 / ratetol=1.0 / qcomp=0.60 / qpmin=10 / qpmax=51 / qpstep=4 / cplxblur=20.0 / qblur=0.5 / ip_ratio=1.40 / aq=1:1.00
Language : English
Default : Yes
Forced : No

Audio #1
ID : 2
Format : AC-3
Format/Info : Audio Coding 3
Mode extension : CM (complete main)
Format settings, Endianness : Big
Codec ID : A_AC3
Duration : 1h 33mn
Bit rate mode : Constant
Bit rate : 448 Kbps
Channel(s) : 6 channels
Channel positions : Front: L C R, Side: L R, LFE
Sampling rate : 48.0 KHz
Bit depth : 16 bits
Compression mode : Lossy
Stream size : 300 MiB (12%)
Title : Thai AC3 5.1 at 448 Kbps [DVD Master]
Language : Thai
Default : Yes
Forced : No

Audio #2
ID : 3
Format : AC-3
Format/Info : Audio Coding 3
Mode extension : CM (complete main)
Format settings, Endianness : Big
Codec ID : A_AC3
Duration : 1h 33mn
Bit rate mode : Constant
Bit rate : 448 Kbps
Channel(s) : 6 channels
Channel positions : Front: L C R, Side: L R, LFE
Sampling rate : 48.0 KHz
Bit depth : 16 bits
Compression mode : Lossy
Stream size : 300 MiB (12%)
Title : English AC3 5.1 at 448 Kbps
Language : English
Default : No
Forced : No

Text #1
ID : 4
Format : VobSub
Muxing mode : zlib
Codec ID : S_VOBSUB
Codec ID/Info : The same subtitle format used on DVDs
Title : Thai 480p [DVD Master]
Language : Thai
Default : Yes
Forced : No

Text #2
ID : 5
Format : VobSub
Muxing mode : zlib
Codec ID : S_VOBSUB
Codec ID/Info : The same subtitle format used on DVDs
Title : Thai 1080p [DVD Master]
Language : Thai
Default : No
Forced : No

Text #3
ID : 6
Format : VobSub
Muxing mode : zlib
Codec ID : S_VOBSUB
Codec ID/Info : The same subtitle format used on DVDs
Title : Thai 1080p Under [DVD Master]
Language : Thai
Default : No
Forced : No

Text #4
ID : 7
Format : PGS
Muxing mode : zlib
Codec ID : S_HDMV/PGS
Codec ID/Info : The same subtitle format used on BDs/HD-DVDs
Title : Thai PGS
Language : Thai
Default : No
Forced : No

Text #5
ID : 8
Format : UTF-8
Codec ID : S_TEXT/UTF8
Codec ID/Info : UTF-8 Plain Text
Title : English SRT
Language : English
Default : No
Forced : No


SS: http://postto.me/19/49t



------------------------------------------------------------------------------------------------




Taken 2 - ෤ह 2

/Type :
Action/Adventure
Drama/Romance
Thriller

ҧ/Studio : 20th Century Fox

´ͧ/Synopsis
ѹ ѺѺ ѹ ˹ҷ CIA ˹˹ش Шҡê١Ƿ¶١¡ش ԵѺ ͧ͢ѡҵǤ˹ҺҹҨҧ鹡Ѻ׹ ѹͧ١Ѻ繵ǻС ʵѹ ͤʹ ѹ֧ͤͨҡͧµ駤 ѧҡ͹ ѡСõ٧ͧҤ׹ǡѹ Ф

ѡʴ/Actors :
- Liam Neeson
- Maggie Grace
- Famke Janssen
- Rade Sherbedgia

ӡѺ/Directors :
- Olivier Megaton


General
Unique ID : 229644491506469676471382520481912993854 (0xACC3EB972E5625EBB59B85DE2038383E)
Complete name : B:download-finish[m-HD] Taken Trilogy 2008-2014 Extended Cut BluRay 720p AC3 x264-CtHtsTaken 2 2012 Unrated Extended Cut BluRay 720p AC3 x264-CtHts.mkv
Format : Matroska
Format version : Version 4 / Version 2
File size : 2.52 GiB
Duration : 1h 38mn
Overall bit rate : 3 664 Kbps
Movie name : Taken 2 2012 Unrated Extended Cut BluRay 720p AC3 x264-CtHts
Encoded date : UTC 2013-02-07 15:18:15
Writing application : mkvmerge v6.0.0 ( Coming Up For Air ) built on Jan 20 2013 09:52:00
Writing library : libebml v1.3.0 + libmatroska v1.4.0

Video
ID : 1
Format : AVC
Format/Info : Advanced Video Codec
Format profile : [email protected]
Format settings, CABAC : Yes
Format settings, ReFrames : 6 frames
Codec ID : V_MPEG4/ISO/AVC
Duration : 1h 38mn
Bit rate : 2 750 Kbps
Width : 1 280 pixels
Height : 536 pixels
Display aspect ratio : 2.40:1
Frame rate mode : Constant
Frame rate : 23.976 fps
Color space : YUV
Chroma subsampling : 4:2:0
Bit depth : 8 bits
Scan type : Progressive
Bits/(Pixel*Frame) : 0.167
Stream size : 1.85 GiB (74%)
Title : Taken 2 2012 Unrated Extended Cut BluRay 720p AC3 x264-CtHts
Writing library : x264 core 129 r2230 1cffe9f
Encoding settings : cabac=1 / ref=6 / deblock=1:0:0 / analyse=0x3:0x113 / me=hex / subme=7 / psy=1 / psy_rd=1.00:0.00 / mixed_ref=0 / me_range=16 / chroma_me=1 / trellis=1 / 8x8dct=1 / cqm=0 / deadzone=21,11 / fast_pskip=0 / chroma_qp_offset=-2 / threads=3 / lookahead_threads=1 / sliced_threads=0 / nr=0 / decimate=0 / interlaced=0 / bluray_compat=0 / constrained_intra=0 / bframes=6 / b_pyramid=2 / b_adapt=1 / b_bias=0 / direct=1 / weightb=1 / open_gop=0 / weightp=2 / keyint=240 / keyint_min=23 / scenecut=40 / intra_refresh=0 / rc_lookahead=40 / rc=2pass / mbtree=1 / bitrate=2750 / ratetol=1.0 / qcomp=0.60 / qpmin=0 / qpmax=69 / qpstep=4 / cplxblur=20.0 / qblur=0.5 / ip_ratio=1.40 / aq=1:1.00
Language : English
Default : Yes
Forced : No

Audio #1
ID : 2
Format : AC-3
Format/Info : Audio Coding 3
Mode extension : CM (complete main)
Format settings, Endianness : Big
Codec ID : A_AC3
Duration : 1h 38mn
Bit rate mode : Constant
Bit rate : 448 Kbps
Channel(s) : 6 channels
Channel positions : Front: L C R, Side: L R, LFE
Sampling rate : 48.0 KHz
Bit depth : 16 bits
Compression mode : Lossy
Stream size : 315 MiB (12%)
Title : Thai AC3 5.1 at 448 Kbps [BluRay Master]
Language : Thai
Default : Yes
Forced : No

Audio #2
ID : 3
Format : AC-3
Format/Info : Audio Coding 3
Mode extension : CM (complete main)
Format settings, Endianness : Big
Codec ID : A_AC3
Duration : 1h 38mn
Bit rate mode : Constant
Bit rate : 448 Kbps
Channel(s) : 6 channels
Channel positions : Front: L C R, Side: L R, LFE
Sampling rate : 48.0 KHz
Bit depth : 16 bits
Compression mode : Lossy
Stream size : 315 MiB (12%)
Title : English AC3 5.1 at 448 Kbps
Language : English
Default : No
Forced : No

Text #1
ID : 4
Format : VobSub
Muxing mode : zlib
Codec ID : S_VOBSUB
Codec ID/Info : The same subtitle format used on DVDs
Title : Thai 480p [BluRay Master]
Language : Thai
Default : Yes
Forced : No

Text #2
ID : 5
Format : VobSub
Muxing mode : zlib
Codec ID : S_VOBSUB
Codec ID/Info : The same subtitle format used on DVDs
Title : Thai 1080p [BluRay Master]
Language : Thai
Default : No
Forced : No

Text #3
ID : 6
Format : VobSub
Muxing mode : zlib
Codec ID : S_VOBSUB
Codec ID/Info : The same subtitle format used on DVDs
Title : Thai 1080p Under [BluRay Master]
Language : Thai
Default : No
Forced : No

Text #4
ID : 7
Format : PGS
Muxing mode : zlib
Codec ID : S_HDMV/PGS
Codec ID/Info : The same subtitle format used on BDs/HD-DVDs
Title : Thai PGS
Language : Thai
Default : No
Forced : No

Text #5
ID : 8
Format : VobSub
Muxing mode : zlib
Codec ID : S_VOBSUB
Codec ID/Info : The same subtitle format used on DVDs
Title : English 1080p [BluRay Master]
Language : English
Default : No
Forced : No

Text #6
ID : 9
Format : VobSub
Muxing mode : zlib
Codec ID : S_VOBSUB
Codec ID/Info : The same subtitle format used on DVDs
Title : English 1080p Under [BluRay Master]
Language : English
Default : No
Forced : No

Text #7
ID : 10
Format : UTF-8
Codec ID : S_TEXT/UTF8
Codec ID/Info : UTF-8 Plain Text
Title : English SRT
Language : English
Default : No
Forced : No


SS: http://postto.me/19/4ym



------------------------------------------------------------------------------------------------




Taken 3 - ෤ह 3

/Type :
Action/Adventure
Drama/Romance
Thriller

ҧ/Studio : 20th Century Fox

´ͧ/Synopsis
ѹ ѺѺ ѹ ʹյ ѹʹҹѺҤ׹աѺʹյ ա ѹ鹡 ʹյҢͧҶ١ҵҧ˴Թ ١繦ҵ Ҩ֧ͧź˹աõҧͧҡ顯 ҧ Ϳ Ǩ оǡ͡´ ҹ ش੾е ͧ繤ش ͵ҦҵõǨԧ ¡ͧصԸѺͧ лͧ١ǤӤѭդҷش㹪Ե ͹騧!!!

ѡʴ/Actors :
- Liam Neeson
- Maggie Grace
- Forest Whitaker

ӡѺ/Directors :
- Olivier Megaton


General
Unique ID : 238388638614527980587708611849210747743 (0xB357FB54079F9A029DB5DF3861A2DB5F)
Complete name : B:download-finish[m-HD] Taken Trilogy 2008-2014 Extended Cut BluRay 720p AC3 x264-CtHtsTaken 3 2014 Extended Cut BluRay 720p AC3 x264-CtHts.mkv
Format : Matroska
Format version : Version 4 / Version 2
File size : 3.13 GiB
Duration : 1h 55mn
Overall bit rate : 3 887 Kbps
Movie name : Taken 3 2014 Extended Cut BluRay 720p AC3 x264-CtHts
Encoded date : UTC 2015-04-18 13:58:36
Writing application : mkvmerge v6.9.1 ( Blue Panther ) 32bit built on Apr 18 2014 18:15:44
Writing library : libebml v1.3.0 + libmatroska v1.4.1

Video
ID : 1
Format : AVC
Format/Info : Advanced Video Codec
Format profile : [email protected]
Format settings, CABAC : Yes
Format settings, ReFrames : 12 frames
Codec ID : V_MPEG4/ISO/AVC
Duration : 1h 55mn
Bit rate : 2 960 Kbps
Width : 1 280 pixels
Height : 536 pixels
Display aspect ratio : 2.40:1
Frame rate mode : Constant
Frame rate : 23.976 fps
Color space : YUV
Chroma subsampling : 4:2:0
Bit depth : 8 bits
Scan type : Progressive
Bits/(Pixel*Frame) : 0.180
Stream size : 2.35 GiB (75%)
Title : Taken 3 2014 Extended Cut BluRay 720p AC3 x264-CtHts
Writing library : x264 core 146 r2538 121396c
Encoding settings : cabac=1 / ref=12 / deblock=1:-3:-3 / analyse=0x3:0x133 / me=umh / subme=10 / psy=1 / psy_rd=1.00:0.00 / mixed_ref=1 / me_range=64 / chroma_me=1 / trellis=2 / 8x8dct=1 / cqm=0 / deadzone=21,11 / fast_pskip=1 / chroma_qp_offset=-2 / threads=12 / lookahead_threads=3 / sliced_threads=0 / nr=0 / decimate=1 / interlaced=0 / bluray_compat=0 / constrained_intra=0 / bframes=11 / b_pyramid=2 / b_adapt=2 / b_bias=0 / direct=3 / weightb=1 / open_gop=0 / weightp=2 / keyint=240 / keyint_min=23 / scenecut=40 / intra_refresh=0 / rc_lookahead=240 / rc=2pass / mbtree=1 / bitrate=2960 / ratetol=1.0 / qcomp=0.60 / qpmin=0 / qpmax=69 / qpstep=4 / cplxblur=20.0 / qblur=0.5 / vbv_maxrate=40000 / vbv_bufsize=30000 / nal_hrd=none / filler=0 / ip_ratio=1.40 / aq=1:1.00
Language : English
Default : Yes
Forced : Yes
Color primaries : BT.709
Transfer characteristics : BT.709
Matrix coefficients : BT.709

Audio #1
ID : 2
Format : AC-3
Format/Info : Audio Coding 3
Mode extension : CM (complete main)
Format settings, Endianness : Big
Codec ID : A_AC3
Duration : 1h 55mn
Bit rate mode : Constant
Bit rate : 448 Kbps
Channel(s) : 6 channels
Channel positions : Front: L C R, Side: L R, LFE
Sampling rate : 48.0 KHz
Bit depth : 16 bits
Compression mode : Lossy
Stream size : 369 MiB (12%)
Title : Thai AC-3 5.1 at 448 Kbps BluRay Master
Language : Thai
Default : Yes
Forced : Yes

Audio #2
ID : 3
Format : AC-3
Format/Info : Audio Coding 3
Mode extension : CM (complete main)
Format settings, Endianness : Big
Codec ID : A_AC3
Duration : 1h 55mn
Bit rate mode : Constant
Bit rate : 448 Kbps
Channel(s) : 6 channels
Channel positions : Front: L C R, Side: L R, LFE
Sampling rate : 48.0 KHz
Bit depth : 16 bits
Compression mode : Lossy
Stream size : 369 MiB (12%)
Title : English AC-3 5.1 at 448 Kbps
Language : English
Default : No
Forced : No

Text #1
ID : 4
Format : VobSub
Muxing mode : zlib
Codec ID : S_VOBSUB
Codec ID/Info : The same subtitle format used on DVDs
Title : Thai 480p
Language : Thai
Default : No
Forced : No

Text #2
ID : 5
Format : VobSub
Muxing mode : zlib
Codec ID : S_VOBSUB
Codec ID/Info : The same subtitle format used on DVDs
Title : Thai 720p
Language : Thai
Default : No
Forced : No

Text #3
ID : 6
Format : VobSub
Muxing mode : zlib
Codec ID : S_VOBSUB
Codec ID/Info : The same subtitle format used on DVDs
Title : Thai 1080p BluRay Master
Language : Thai
Default : Yes
Forced : Yes

Text #4
ID : 7
Format : VobSub
Muxing mode : zlib
Codec ID : S_VOBSUB
Codec ID/Info : The same subtitle format used on DVDs
Title : Thai 1080p BluRay Master [Out]
Language : Thai
Default : No
Forced : No

Text #5
ID : 8
Format : PGS
Muxing mode : zlib
Codec ID : S_HDMV/PGS
Codec ID/Info : The same subtitle format used on BDs/HD-DVDs
Title : Thai PGS BluRay Master
Language : Thai
Default : No
Forced : No

Text #6
ID : 9
Format : PGS
Muxing mode : zlib
Codec ID : S_HDMV/PGS
Codec ID/Info : The same subtitle format used on BDs/HD-DVDs
Title : Thai PGS BluRay Master [Out]
Language : Thai
Default : No
Forced : No

Text #7
ID : 10
Format : VobSub
Muxing mode : zlib
Codec ID : S_VOBSUB
Codec ID/Info : The same subtitle format used on DVDs
Title : English 1080p BluRay Master
Language : English
Default : No
Forced : No

Text #8
ID : 11
Format : PGS
Muxing mode : zlib
Codec ID : S_HDMV/PGS
Codec ID/Info : The same subtitle format used on BDs/HD-DVDs
Title : English PGS BluRay Master
Language : English
Default : No
Forced : No

Text #9
ID : 12
Format : UTF-8
Codec ID : S_TEXT/UTF8
Codec ID/Info : UTF-8 Plain Text
Title : English SRT
Language : English
Default : No
Forced : No

Menu
00:00:00.000 : en:00:00:00.000
00:04:18.091 : en:00:04:18.091
00:10:12.820 : en:00:10:12.820
00:13:20.466 : en:00:13:20.466
00:15:44.986 : en:00:15:44.986
00:18:25.354 : en:00:18:25.354
00:23:18.814 : en:00:23:18.814
00:25:49.256 : en:00:25:49.256
00:27:34.861 : en:00:27:34.861
00:30:21.403 : en:00:30:21.403
00:33:01.146 : en:00:33:01.146
00:36:00.283 : en:00:36:00.283
00:38:17.795 : en:00:38:17.795
00:43:08.419 : en:00:43:08.419
00:46:46.428 : en:00:46:46.428
00:50:21.143 : en:00:50:21.143
00:55:00.338 : en:00:55:00.338
00:59:07.293 : en:00:59:07.293
01:02:49.641 : en:01:02:49.641
01:05:56.953 : en:01:05:56.953
01:07:13.863 : en:01:07:13.863
01:09:59.028 : en:01:09:59.028
01:14:26.086 : en:01:14:26.086
01:18:10.185 : en:01:18:10.185
01:22:19.518 : en:01:22:19.518
01:25:26.162 : en:01:25:26.162
01:29:38.206 : en:01:29:38.206
01:33:24.473 : en:01:33:24.473
01:37:07.571 : en:01:37:07.571
01:40:37.656 : en:01:40:37.656
01:46:48.443 : en:01:46:48.443
01:49:42.993 : en:01:49:42.993


SS: http://postto.me/19/4ye



1 http://www.mekafile.com/dl.php?f=w02f48bQFvKt
2 http://www.mekafile.com/dl.php?f=1Ab859bQFtTq
3 http://www.mekafile.com/dl.php?f=Qhe77abQFuFb

Taken 2 2012 Unrated Extended Cut BluRay 720p AC3 x264-CtHts.mkv - 2.5 GB
Taken 2008 Extended Harder Cut BluRay 720p AC3 x264-CtHts.mkv - 2.4 GB
Taken 3 2014 Extended Cut BluRay 720p AC3 x264-CtHts.mkv - 3.1 GB