ͧ
A research chemist comes under personal and professional attack when he decides to appear in a 60 Minutes expose on Big Tobacco.
Director: Michael Mann
Writers: Marie Brenner (article), Eric Roth
Stars: Russell Crowe, Al Pacino, Christopher Plummer

Format : Matroska
Format version : Version 4
File size : 5.04 GiB
Duration : 2 h 37 min
Overall bit rate : 4 577 kb/s
Encoded date : UTC 2019-02-04 08:08:03
Writing application : mkvmerge v30.1.0 ( Forever And More ) 64-bit
Writing library : libebml v1.3.6 + libmatroska v1.4.9

Video
ID : 1
Format : AVC
Format/Info : Advanced Video Codec
Format profile : [email protected]
Format settings : CABAC / 3 Ref Frames
Format settings, CABAC : Yes
Format settings, ReFrames : 3 frames
Codec ID : V_MPEG4/ISO/AVC
Duration : 2 h 37 min
Bit rate : 3 778 kb/s
Width : 1 920 pixels
Height : 808 pixels
Display aspect ratio : 2.40:1
Frame rate mode : Constant
Frame rate : 23.976 (24000/1001) FPS
Color space : YUV
Chroma subsampling : 4:2:0
Bit depth : 8 bits
Scan type : Progressive
Bits/(Pixel*Frame) : 0.102
Stream size : 4.16 GiB (83%)
Language : English
Default : Yes
Forced : No

Audio
ID : 2
Format : DTS
Format/Info : Digital Theater Systems
Codec ID : A_DTS
Duration : 2 h 37 min
Bit rate mode : Constant
Bit rate : 768 kb/s
Channel(s) : 6 channels
Channel layout : C L R Ls Rs LFE
Sampling rate : 48.0 kHz
Frame rate : 93.750 FPS (512 SPF)
Bit depth : 24 bits
Compression mode : Lossy
Stream size : 867 MiB (17%)
Title : DTS ENG
Language : English
Default : Yes
Forced : No

Text #1
ID : 3
Format : PGS
Muxing mode : zlib
Codec ID : S_HDMV/PGS
Codec ID/Info : Picture based subtitle format used on BDs/HD-DVDs
Duration : 2 h 36 min
Bit rate : 29.3 kb/s
Count of elements : 3910
Stream size : 32.8 MiB (1%)
Title : PGS ENG
Language : English
Default : Yes
Forced : No

Text #2
ID : 4
Format : PGS
Muxing mode : zlib
Codec ID : S_HDMV/PGS
Codec ID/Info : Picture based subtitle format used on BDs/HD-DVDs
Duration : 2 h 30 min
Bit rate : 34.1 kb/s
Count of elements : 3650
Stream size : 36.7 MiB (1%)
Title : PGS THAI
Language : Thai
Default : No
Forced : No



http://cornfile.com/3cr5yobsz0jo
http://www.mekafile.com/dl.php?f=oa225bbQ15xn