ตอน ซูเบอร์ร่า

ปีเปิดตัว : 2019

เมื่อศึกชิงที่ดิน เงินทอง และอำนาจปะทุเดือด ออเรลิอาโน สปาดีโน และเลเล่จึงรวมหัวกันวางแผนเข้ายึดครองวงการธุรกิจมื ดในกรุงโรมจากซามูไร

1. หาตัวเธอ 48 นาที
ขณะที่ชีนาลเยียรอผลการหาเสียงอย่างจดจ่อ ซามูไรได้พยายามแสดงอำนาจเหนือออเรลิอาโนและเลเล่ ส่วนสปาดีโนตัดสินใจใช้ลูกไม้เจ้าเล่ห์เพื่อช่วงชิงอ ำนาจ

2. ผลที่ตามมา 47 นาที
ลิเวียกลายเป็นเหยื่อล่อและตกเป็นเป้าในเหตุความขัดแ ย้งระหว่างสปาดีโนและแม่ของเขา ซาร่าเสาะหาพันธมิตรใหม่ในวาติกัน ส่วนชีนาลเยียตัดสินใจเสี่ยงขัดขืนคำสั่งของซามูไร

3. อีกนิดเดียว 48 นาที
ออเรลิอาโนสาบานว่าจะแก้แค้น อันเจลีกาวางแผนเพื่อช่วยสปาดีโน คริสเตียนาเริ่มสงสัยในตัวเลเล่มากขึ้นเรื่อยๆ ส่วนซามูไรกดดันซาร่าให้ย้ายตัวผู้อพยพ

4. ห้อยหัว 44 นาที
การถอนตัวจากการเป็นพันธมิตรของชีนาลเยียทำให้เขาและ ซามูไรต้องรับมือกับผลร้ายที่ตามมา แอดิเลดลงมือหาทางควบคุมการค้ายาในโอสเตีย ส่วนเลเล่ขอให้ซาร่าช่วยโค่นซามูไร

5. เปลเด็ก 47 นาที
ขณะที่ชีนาลเยียวางแผนการ ซามูไรได้พยายามมองหาพันธมิตรใหม่และปิดปากพันธมิตรเ ก่า ส่วนออเรลิอาโนใช้วิธีการโหดเพื่อให้ได้กุมอำนาจในวง การใต้ดินของโอสเตี&65279 ยอีกครั้ง

6. เปิดศึก 43 นาที
ขณะที่สงครามชิงอำนาจในวงการค้ายาก่อตัวขึ้นจนทำให้โ อสเตียตกอยู่ในภาวะสงคราม พันธมิตรใหม่ได้ก่อตัวขึ้น เมื่อกลุ่มเก่าเสื่อมอำนาจและเหตุการณ์นองเลือดได้ปะ ทุไปทั่ว

7. เซนต์เปโตรและเปาโล 48 นาที
หลังเกิดเหตุการณ์รุนแรง ชีนาลเยียตัดสินใจยกระดับแผนการสุดโหดของตัวเอง ออเรลิอาโนและสปาดีโนทำข้อตกลงร่วมกัน ส่วนเลเล่ต้องเผชิญหน้ากับโทสะอันเดือดดาลของซามูไร

8. บอกความจริงมา 53 นาที
เมื่อการเลือกตั้งใกล้เข้ามาและซามูไรเริ่มสูญเสียอำ นาจที่มีอยู่ ออเรลิอาโนได้ตัดสินใจขอความช่วยเหลือจากนาเดีย สปาดีโนถูกแบล็กเมล์ ส่วนเลเล่ทำการตัดสินใจที่จะกำหนดชะตากรรม


ตัวอย่างตอน...หาตัวเธอ 48 นาที



Format : Matroska
Format version : Version 4
File size : 16.1 GiB
Duration : 48 min 4 s
Overall bit rate : 48.0 Mb/s

Video
ID : 1
Format : AVC
Format/Info : Advanced Video Codec
Format profile : [email protected]
Format settings : CABAC / 5 Ref Frames
Format settings, CABAC : Yes
Format settings, RefFrames : 5 frames
Codec ID : V_MPEG4/ISO/AVC
Duration : 48 min 4 s
Bit rate : 47.4 Mb/s
Width : 3 840 pixels
Height : 2 076 pixels
Display aspect ratio : 1.85:1
Frame rate mode : Constant
Frame rate : 25.000 FPS
Color space : YUV
Chroma subsampling : 4:2:0
Bit depth : 8 bits
Scan type : Progressive
Bits/(Pixel*Frame) : 0.238
Stream size : 15.9 GiB (99%)
Writing library : x264 core 152 r2851kMod ba24899
Encoding settings : cabac=1 / ref=5 / deblock=1:-3:-3 / analyse=0x3:0x133 / me=umh / subme=10 / psy=1 / fade_compensate=0.00 / psy_rd=1.00:0.00 / mixed_ref=1 / me_range=48 / chroma_me=1 / trellis=2 / 8x8dct=1 / cqm=0 / deadzone=21,11 / fast_pskip=0 / chroma_qp_offset=-2 / threads=18 / lookahead_threads=3 / sliced_threads=0 / nr=0 / decimate=0 / interlaced=0 / bluray_compat=0 / constrained_intra=0 / bframes=8 / b_pyramid=2 / b_adapt=2 / b_bias=0 / direct=3 / weightb=1 / open_gop=0 / weightp=2 / keyint=250 / keyint_min=25 / scenecut=40 / intra_refresh=0 / rc=crf / mbtree=0 / crf=17.0000 / qcomp=0.60 / qpmin=0 / qpmax=69 / qpstep=4 / ip_ratio=1.30 / pb_ratio=1.20 / aq=3:0.80
Language : English
Default : Yes
Forced : No

Audio
ID : 2
Format : E-AC-3
Format/Info : Enhanced Audio Coding 3
Codec ID : A_EAC3
Duration : 48 min 4 s
Bit rate mode : Constant
Bit rate : 640 kb/s
Channel(s) : 6 channels
Channel positions : Front: L C R, Side: L R, LFE
Sampling rate : 48.0 kHz
Frame rate : 187.500 FPS (256 SPF)
Compression mode : Lossy
Stream size : 220 MiB (1%)
Title : Italian
Language : Italian 5.1
Service kind : Complete Main
Default : Yes
Forced : No

Text 1
ID : 3
Format : UTF-8
Codec ID : S_TEXT/UTF8
Codec ID/Info : UTF-8 Plain Text
Duration : 33 min 24 s
Bit rate : 4 b/s
Count of elements : 40
Stream size : 1.12 KiB (0%)
Title : Forced
Language : Italian
Default : Yes
Forced : Yes

Text 2
ID : 4
Format : UTF-8
Codec ID : S_TEXT/UTF8
Codec ID/Info : UTF-8 Plain Text
Duration : 43 min 30 s
Bit rate : 54 b/s
Count of elements : 464
Stream size : 17.5 KiB (0%)
Language : English
Default : No
Forced : No

Text 3
ID : 5
Format : UTF-8
Codec ID : S_TEXT/UTF8
Codec ID/Info : UTF-8 Plain Text
Duration : 43 min 30 s
Bit rate : 91 b/s
Count of elements : 465
Stream size : 29.2 KiB (0%)
Language : Arabic
Default : No
Forced : No

Text 4
ID : 6
Format : UTF-8
Codec ID : S_TEXT/UTF8
Codec ID/Info : UTF-8 Plain Text
Duration : 43 min 30 s
Bit rate : 80 b/s
Count of elements : 466
Stream size : 25.6 KiB (0%)
Language : Bulgarian
Default : No
Forced : No

Text 5
ID : 7
Format : UTF-8
Codec ID : S_TEXT/UTF8
Codec ID/Info : UTF-8 Plain Text
Duration : 43 min 30 s
Bit rate : 51 b/s
Count of elements : 460
Stream size : 16.5 KiB (0%)
Language : Danish
Default : No
Forced : No

Text 6
ID : 8
Format : UTF-8
Codec ID : S_TEXT/UTF8
Codec ID/Info : UTF-8 Plain Text
Duration : 43 min 30 s
Bit rate : 57 b/s
Count of elements : 462
Stream size : 18.4 KiB (0%)
Language : German
Default : No
Forced : No

Text 7
ID : 9
Format : UTF-8
Codec ID : S_TEXT/UTF8
Codec ID/Info : UTF-8 Plain Text
Duration : 43 min 30 s
Bit rate : 89 b/s
Count of elements : 468
Stream size : 28.5 KiB (0%)
Language : Greek
Default : No
Forced : No

Text 8
ID : 10
Format : UTF-8
Codec ID : S_TEXT/UTF8
Codec ID/Info : UTF-8 Plain Text
Duration : 43 min 30 s
Bit rate : 56 b/s
Count of elements : 466
Stream size : 17.9 KiB (0%)
Language : Spanish
Default : No
Forced : No

Text 9
ID : 11
Format : UTF-8
Codec ID : S_TEXT/UTF8
Codec ID/Info : UTF-8 Plain Text
Duration : 43 min 30 s
Bit rate : 56 b/s
Count of elements : 467
Stream size : 17.9 KiB (0%)
Title : European
Language : Spanish
Default : No
Forced : No

Text 10
ID : 12
Format : UTF-8
Codec ID : S_TEXT/UTF8
Codec ID/Info : UTF-8 Plain Text
Duration : 43 min 30 s
Bit rate : 50 b/s
Count of elements : 462
Stream size : 15.9 KiB (0%)
Language : Finnish
Default : No
Forced : No

Text 11
ID : 13
Format : UTF-8
Codec ID : S_TEXT/UTF8
Codec ID/Info : UTF-8 Plain Text
Duration : 43 min 30 s
Bit rate : 55 b/s
Count of elements : 473
Stream size : 17.6 KiB (0%)
Language : French
Default : No
Forced : No

Text 12
ID : 14
Format : UTF-8
Codec ID : S_TEXT/UTF8
Codec ID/Info : UTF-8 Plain Text
Duration : 43 min 30 s
Bit rate : 79 b/s
Count of elements : 465
Stream size : 25.3 KiB (0%)
Language : Hebrew
Default : No
Forced : No

Text 13
ID : 15
Format : UTF-8
Codec ID : S_TEXT/UTF8
Codec ID/Info : UTF-8 Plain Text
Duration : 43 min 47 s
Bit rate : 65 b/s
Count of elements : 600
Stream size : 20.9 KiB (0%)
Title : SDH
Language : Italian
Default : No
Forced : No

Text 14
ID : 16
Format : UTF-8
Codec ID : S_TEXT/UTF8
Codec ID/Info : UTF-8 Plain Text
Duration : 43 min 30 s
Bit rate : 45 b/s
Count of elements : 482
Stream size : 14.5 KiB (0%)
Language : Japanese
Default : No
Forced : No

Text 15
ID : 17
Format : UTF-8
Codec ID : S_TEXT/UTF8
Codec ID/Info : UTF-8 Plain Text
Duration : 43 min 30 s
Bit rate : 61 b/s
Count of elements : 466
Stream size : 19.4 KiB (0%)
Language : Korean
Default : No
Forced : No

Text 16
ID : 18
Format : UTF-8
Codec ID : S_TEXT/UTF8
Codec ID/Info : UTF-8 Plain Text
Duration : 43 min 30 s
Bit rate : 51 b/s
Count of elements : 463
Stream size : 16.3 KiB (0%)
Language : Norwegian Bokmal
Default : No
Forced : No

Text 17
ID : 19
Format : UTF-8
Codec ID : S_TEXT/UTF8
Codec ID/Info : UTF-8 Plain Text
Duration : 43 min 30 s
Bit rate : 50 b/s
Count of elements : 453
Stream size : 16.0 KiB (0%)
Language : Dutch
Default : No
Forced : No

Text 18
ID : 20
Format : UTF-8
Codec ID : S_TEXT/UTF8
Codec ID/Info : UTF-8 Plain Text
Duration : 43 min 30 s
Bit rate : 48 b/s
Count of elements : 464
Stream size : 15.5 KiB (0%)
Language : Polish
Default : No
Forced : No

Text 19
ID : 21
Format : UTF-8
Codec ID : S_TEXT/UTF8
Codec ID/Info : UTF-8 Plain Text
Duration : 43 min 30 s
Bit rate : 53 b/s
Count of elements : 466
Stream size : 16.9 KiB (0%)
Language : Portuguese
Default : No
Forced : No

Text 20
ID : 22
Format : UTF-8
Codec ID : S_TEXT/UTF8
Codec ID/Info : UTF-8 Plain Text
Duration : 43 min 30 s
Bit rate : 53 b/s
Count of elements : 467
Stream size : 16.9 KiB (0%)
Title : Brazilian
Language : Portuguese
Default : No
Forced : No

Text 21
ID : 23
Format : UTF-8
Codec ID : S_TEXT/UTF8
Codec ID/Info : UTF-8 Plain Text
Duration : 43 min 30 s
Bit rate : 59 b/s
Count of elements : 466
Stream size : 19.0 KiB (0%)
Language : Romanian
Default : No
Forced : No

Text 22
ID : 24
Format : UTF-8
Codec ID : S_TEXT/UTF8
Codec ID/Info : UTF-8 Plain Text
Duration : 43 min 30 s
Bit rate : 53 b/s
Count of elements : 462
Stream size : 17.0 KiB (0%)
Language : Swedish
Default : No
Forced : No

Text 23
ID : 25
Format : UTF-8
Codec ID : S_TEXT/UTF8
Codec ID/Info : UTF-8 Plain Text
Duration : 43 min 30 s
Bit rate : 132 b/s
Count of elements : 466
Stream size : 42.4 KiB (0%)
Language : Thai
Default : No
Forced : No

Text 24
ID : 26
Format : UTF-8
Codec ID : S_TEXT/UTF8
Codec ID/Info : UTF-8 Plain Text
Duration : 43 min 30 s
Bit rate : 54 b/s
Count of elements : 464
Stream size : 17.3 KiB (0%)
Language : Turkish
Default : No
Forced : No

Text 25
ID : 27
Format : UTF-8
Codec ID : S_TEXT/UTF8
Codec ID/Info : UTF-8 Plain Text
Duration : 43 min 30 s
Bit rate : 57 b/s
Count of elements : 466
Stream size : 18.4 KiB (0%)
Title : Simplified
Language : Chinese
Default : No
Forced : No

Text 26
ID : 28
Format : UTF-8
Codec ID : S_TEXT/UTF8
Codec ID/Info : UTF-8 Plain Text
Duration : 43 min 30 s
Bit rate : 58 b/s
Count of elements : 466
Stream size : 18.6 KiB (0%)
Title : Traditional
Language : Chinese
Default : No
Forced : No

Menu
00:02:44.720 : en:Intro start
00:03:04.560 : en:Intro end






















Download: cornfile
Suburra.S02E01.Find.Her.2160p.NF.WEBRip.DDP5.1.x26 4.mkv - 16.1 GB
Suburra.S02E02.Consequences.2160p.NF.WEBRip.DDP5.1 .x264.mkv - 16.3 GB
Suburra.S02E03.Closer.2160p.NF.WEBRip.DDP5.1.x264. mkv - 15.6 GB
Suburra.S02E04.Upside.Down.2160p.NF.WEBRip.DDP5.1. x264.mkv - 13.4 GB
Suburra.S02E05.The.Crib.2160p.NF.WEBRip.DDP5.1.x26 4.mkv - 15.9 GB
Suburra.S02E06.Its.War.2160p.NF.WEBRip.DDP5.1.x264 .mkv - 12.7 GB
Suburra.S02E07.Saints.Peter.And.Paul.2160p.NF.WEBR ip.DDP5.1.x264.mkv - 13.5 GB
Suburra.S02E08.Tell.Me.The.Truth.2160p.NF.WEBRip.D DP5.1.x264.mkv - 15.9 GB

Download: mekafile
1 http://www.mekafile.com/dl.php?f=8wb8e6bRfomd
2 http://www.mekafile.com/dl.php?f=39e672bRfGix
3 http://www.mekafile.com/dl.php?f=gu5c61bRmajJ
4 http://www.mekafile.com/dl.php?f=Nke227bRsdbj
5 http://www.mekafile.com/dl.php?f=JN5cf2bRsebR
6 http://www.mekafile.com/dl.php?f=MMa96cbRseVO
7 http://www.mekafile.com/dl.php?f=9D2ea9bRsfSw
8 http://www.mekafile.com/dl.php?f=L029bdbRmc4z