+ Reply to Thread
Results 1 to 4 of 4
  1. #1
    Administrators Duckload.us's Avatar
    Join Date
    Dec 2010
    Posts
    100,885
    Thanks
    9
    Thanked 102,471 Times in 49,011 Posts

    Question []-((( --Ѵ ))) Aquaman (2018) : ͤ ط [WebRip.H.264.1080p.][ҡç - ѧ][ iTune + Ѻ PGS Ѵ]



    Ӵ Ѻ͵Ź
    ط蹡ͧú
    Ҿ¹ҡ DC ŧҹͧӡѺʹѧ ҹ



    7.3/10








    Format : Matroska
    Format version : Version 4 / Version 2
    File size : 2.81 GiB
    Duration : 2h 23mn
    Overall bit rate : 2 802 Kbps
    Movie name : [email protected]ԹǴ
    Encoded date : UTC 2019-03-09 10:08:35
    Writing application : mkvmerge v7.2.0 ('On Every Street') 32bit built on Sep 13 2014 15:42:11
    Writing library : libebml v1.3.0 + libmatroska v1.4.1

    Video
    ID : 1
    Format : AVC
    Format/Info : Advanced Video Codec
    Format profile : [email protected]
    Format settings, CABAC : Yes
    Format settings, ReFrames : 4 frames
    Codec ID : V_MPEG4/ISO/AVC
    Duration : 2h 23mn
    Bit rate : 2 150 Kbps
    Width : 1 920 pixels
    Height : 800 pixels
    Display aspect ratio : 2.40:1
    Frame rate mode : Constant
    Frame rate : 23.976 (24000/1001) fps
    Color space : YUV
    Chroma subsampling : 4:2:0
    Bit depth : 8 bits
    Scan type : Progressive
    Bits/(Pixel*Frame) : 0.058
    Stream size : 2.15 GiB (77%)
    Title : [email protected]ԹǴ
    Writing library : x264 core 157
    Encoding settings : cabac=1 / ref=4 / deblock=1:-1:-1 / analyse=0x3:0x133 / me=umh / subme=9 / psy=1 / psy_rd=1.00:0.15 / mixed_ref=1 / me_range=24 / chroma_me=1 / trellis=2 / 8x8dct=1 / cqm=0 / deadzone=21,11 / fast_pskip=0 / chroma_qp_offset=-3 / threads=18 / lookahead_threads=1 / sliced_threads=0 / nr=0 / decimate=1 / interlaced=0 / bluray_compat=0 / constrained_intra=0 / bframes=3 / b_pyramid=2 / b_adapt=2 / b_bias=0 / direct=3 / weightb=1 / open_gop=0 / weightp=2 / keyint=250 / keyint_min=23 / scenecut=40 / intra_refresh=0 / rc_lookahead=60 / rc=2pass / mbtree=1 / bitrate=2150 / ratetol=1.0 / qcomp=0.60 / qpmin=0 / qpmax=69 / qpstep=4 / cplxblur=20.0 / qblur=0.5 / vbv_maxrate=31250 / vbv_bufsize=31250 / nal_hrd=none / filler=0 / ip_ratio=1.40 / aq=1:1.00
    Language : English

    Audio 1
    ID : 2
    Format : AC-3
    Format/Info : Audio Coding 3
    Mode extension : CM (complete main)
    Format settings, Endianness : Big
    Codec ID : A_AC3
    Duration : 2h 22mn
    Bit rate mode : Constant
    Bit rate : 448 Kbps
    Channel(s) : 6 channels
    Channel positions : Front: L C R, Side: L R, LFE
    Sampling rate : 48.0 KHz
    Frame rate : 31.250 fps (1536 spf)
    Compression mode : Lossy
    Delay relative to video : 7s 357ms
    Stream size : 457 MiB (16%)
    Title : Thai Rong AC3
    Language : Thai

    Audio 2
    ID : 3
    Format : AAC
    Format/Info : Advanced Audio Codec
    Format profile : LC
    Codec ID : A_AAC
    Duration : 2h 23mn
    Bit rate : 148 Kbps
    Channel(s) : 2 channels
    Channel positions : Front: L R
    Sampling rate : 48.0 KHz
    Frame rate : 46.875 fps (1024 spf)
    Compression mode : Lossy
    Delay relative to video : -43ms
    Stream size : 152 MiB (5%)
    Title : English AAC
    Language : English

    Text 1
    ID : 4
    Format : VobSub
    Codec ID : S_VOBSUB
    Codec ID/Info : Picture based subtitle format used on DVDs
    Duration : 2h 23mn
    Bit rate : 1 648 bps
    Count of elements : 1125
    Stream size : 1.69 MiB (0%)
    Title : Thai 480p
    Language : Thai

    Text 2
    ID : 5
    Format : VobSub
    Codec ID : S_VOBSUB
    Codec ID/Info : Picture based subtitle format used on DVDs
    Duration : 2h 23mn
    Bit rate : 3 303 bps
    Count of elements : 1125
    Stream size : 3.38 MiB (0%)
    Title : Thai 720p
    Language : Thai

    Text 3
    ID : 6
    Format : VobSub
    Codec ID : S_VOBSUB
    Codec ID/Info : Picture based subtitle format used on DVDs
    Duration : 2h 23mn
    Bit rate : 4 688 bps
    Count of elements : 1125
    Stream size : 4.80 MiB (0%)
    Title : Thai 1080p
    Language : Thai

    Text 4
    ID : 7
    Format : VobSub
    Codec ID : S_VOBSUB
    Codec ID/Info : Picture based subtitle format used on DVDs
    Duration : 2h 23mn
    Bit rate : 4 599 bps
    Count of elements : 1125
    Stream size : 4.71 MiB (0%)
    Title : Thai 1080p Sarabun
    Language : Thai

    Text 5
    ID : 8
    Format : VobSub
    Codec ID : S_VOBSUB
    Codec ID/Info : Picture based subtitle format used on DVDs
    Duration : 2h 23mn
    Bit rate : 5 645 bps
    Count of elements : 1125
    Stream size : 5.78 MiB (0%)
    Title : Thai 1080p Yellow
    Language : Thai

    Text 6
    ID : 9
    Format : PGS
    Codec ID : S_HDMV/PGS
    Codec ID/Info : Picture based subtitle format used on BDs/HD-DVDs
    Duration : 2h 23mn
    Bit rate : 14.2 Kbps
    Count of elements : 2250
    Stream size : 14.5 MiB (1%)
    Title : Thai PGS
    Language : Thai

    Text 7
    ID : 10
    Format : PGS
    Codec ID : S_HDMV/PGS
    Codec ID/Info : Picture based subtitle format used on BDs/HD-DVDs
    Duration : 2h 15mn
    Bit rate : 23.8 Kbps
    Count of elements : 2948
    Stream size : 23.0 MiB (1%)
    Title : English PGS
    Language : English



















    Download: cornfile
    http://cornfile.com/8qvreaf4t7pa
    Download: mekafile
    http://www.mekafile.com/dl.php?f=Tncf07bRkye7

  2. The Following 2 Users Say Thank You to Duckload.us For This Useful Post:

    noi54 (03-11-2019), PUNKROCK (03-15-2019)

  3. #2
    Senior Member
    Join Date
    Jun 2014
    Posts
    452
    Thanks
    0
    Thanked 0 Times in 0 Posts
    ͺسѺ

  4. #3
    Member
    Join Date
    Apr 2016
    Posts
    30
    Thanks
    6
    Thanked 0 Times in 0 Posts
    ͺسѺ...

  5. #4
    Senior Member PUNKROCK's Avatar
    Join Date
    Jul 2011
    Posts
    1,236
    Thanks
    1,121
    Thanked 0 Times in 0 Posts
    . آآ Ѻ
    PUNKROCK NEVERDIE

Thread Information

Users Browsing this Thread

There are currently 1 users browsing this thread. (0 members and 1 guests)

     

Posting Permissions

  • You may not post new threads
  • You may not post replies
  • You may not post attachments
  • You may not edit your posts