Kamen Raidâ Gaimu



Rating: 8.2/10 Year: 2013 Genres: Action / Adventure / Fantasy / Sci-Fi Runtime: 25 min Language: Japanese / Korean Director: n/A Writers: Jin Haganeya / Shôtarô Ishinomori / Norimitsu Kaiho Cast: Gaku Sano / Seiji Hiratoko / Hôchû ÔtsukaPlot:

Zawame-city is a company town where the Yggdrasil Corporation. In the city, young street-dancers divide up into a few groups. They enjoy dance battle and a sport that fighting between small animals summoned from a different world, but monsters also come after a while. A former street-dancer, Kouta Kazuraba gets a gadget that can him to make a Kamen Rider, wants to protect people against monsters.

Video
ID : 1
Format : AVC
Format/Info : Advanced Video Codec
Format profile : [email protected]
Format settings : CABAC / 4 Ref Frames
Format settings, CABAC : Yes
Format settings, ReFrames : 4 frames
Codec ID : V_MPEG4/ISO/AVC
Duration : 22 min 50 s
Bit rate : 6 493 kb/s
Width : 1 920 pixels
Height : 1 080 pixels
Display aspect ratio : 16:9
Frame rate mode : Constant
Frame rate : 23.976 (24000/1001) FPS
Color space : YUV
Chroma subsampling : 4:2:0
Bit depth : 8 bits
Scan type : Progressive
Bits/(Pixel*Frame) : 0.131
Stream size : 1.04 GiB (94%)
Title : Episode 1 - Transform! An Orange From the Sky?!
Writing library : x264 core 146 r2538 121396c
Encoding settings : cabac=1 / ref=4 / deblock=1:-1:-1 / analyse=0x3:0x133 / me=umh / subme=10 / psy=1 / psy_rd=1.00:0.15 / mixed_ref=1 / me_range=24 / chroma_me=1 / trellis=2 / 8x8dct=1 / cqm=0 / deadzone=21,11 / fast_pskip=1 / chroma_qp_offset=-2 / threads=4 / lookahead_threads=1 / sliced_threads=0 / nr=0 / decimate=1 / interlaced=0 / bluray_compat=0 / constrained_intra=0 / bframes=12 / b_pyramid=2 / b_adapt=2 / b_bias=0 / direct=3 / weightb=1 / open_gop=0 / weightp=2 / keyint=240 / keyint_min=22 / scenecut=40 / intra_refresh=0 / rc_lookahead=60 / rc=crf / mbtree=1 / crf=22.5 / qcomp=0.70 / qpmin=0 / qpmax=69 / qpstep=3 / ip_ratio=1.40 / aq=1:1.00
Language : Japanese
Default : Yes
Forced : No

Audio 1
ID : 2
Format : AAC LC
Format/Info : Advanced Audio Codec Low Complexity
Codec ID : A_AAC-2
Duration : 22 min 50 s
Bit rate : 162 kb/s
Channel(s) : 2 channels
Channel layout : L R
Sampling rate : 48.0 kHz
Frame rate : 46.875 FPS (1024 SPF)
Compression mode : Lossy
Delay relative to video : 9 ms
Stream size : 26.4 MiB (2%)
Title : Japanese Stereo 2ch AAC
Language : Japanese
Default : No
Forced : No

Audio 2
ID : 5
Format : AAC LC
Format/Info : Advanced Audio Codec Low Complexity
Codec ID : A_AAC-2
Duration : 23 min 0 s
Bit rate : 206 kb/s
Channel(s) : 2 channels
Channel layout : L R
Sampling rate : 44.1 kHz
Frame rate : 43.066 FPS (1024 SPF)
Compression mode : Lossy
Stream size : 33.9 MiB (3%)
Title : thai
Default : Yes



58.14 GB
http://www.filecondo.com/dl.php?f=A34c441H450J