+ Reply to Thread
Results 1 to 2 of 2
  1. #1
    Administrators Duckload.us's Avatar
    Join Date
    Dec 2010
    Posts
    102,774
    Thanks
    9
    Thanked 105,265 Times in 49,992 Posts

    Question [ฝรั่ง]-The Legend of Tarzan (2016) ตำนานแห่งทาร์ซาน - [พากย์ไทย+อังกฤษ] [บรรยายไทย+อังกฤษ] 2160p.HDR.10bits



    นับเป็นเวลานานหลายปีตั้งแต่ชายผู้เคยเป็นที่รู้จักใ นชื่อทาร์ซาน (สการ์สการ์ด) ออกจากป่าดงดิบในแอฟริกามาใช้ชีวิตคนเมืองในฐานะจอห์ น เคลย์ตัน หรือลอร์ดเกรย์สโตค พร้อมกับมี เจน (ร็อบบี้) ภรรยาผู้เป็นที่รักอยู่เคียงข้าง มาตอนนี้เขาได้รับเชิญให้กลับไปยังคองโกเพื่อทำหน้าท ี่เป็นผู้แทนการค้าให้รัฐบาล โดยหารู้ไม่ว่าตนเองกำลังเป็นหมากในแผนการอันตรายที่ เกิดจากความโลภและความแค้น แผนการครั้งนี้มีทูตของกษัตริย์เบลเยียม ลีออน รอม (วอลซ์) เป็นผู้ชักใยอยู่เบื้องหลัง แต่เหล่าผู้คิดแผนการสังหารยังไม่รู้ว่าตนเองกำลังจะ ปลดปล่อยสิ่งใดออกมา


    Duration : 1 h 49 min
    Overall bit rate : 13.2 Mb/s
    Encoded date : UTC 2019-03-11 07:15:14
    Writing application : mkvmerge v31.0.0 ('Dolores In A Shoestand') 64-bit
    Writing library : libebml v1.3.6 + libmatroska v1.4.9
    Cover : Yes
    Attachments : cover

    Video
    ID : 1
    Format : HEVC
    Format/Info : High Efficiency Video Coding
    Commercial name : HDR10
    Format profile : Main [email protected]@High
    Codec ID : V_MPEGH/ISO/HEVC
    Duration : 1 h 49 min
    Bit rate : 12.0 Mb/s
    Width : 3 840 pixels
    Height : 1 600 pixels
    Display aspect ratio : 2.40:1
    Frame rate mode : Constant
    Frame rate : 23.976 (24000/1001) FPS
    Color space : YUV
    Chroma subsampling : 4:2:0 (Type 2)
    Bit depth : 10 bits
    Bits/(Pixel*Frame) : 0.081
    Stream size : 9.20 GiB (91%)
    Writing library : x265 2.5+17-f8ae7afc1f61:[Windows][GCC 6.2.1][64 bit] 10bit
    Encoding settings : cpuid=1049087 / frame-threads=4 / numa-pools=12,12 / wpp / no-pmode / no-pme / no-psnr / no-ssim / log-level=2 / input-csp=1 / input-res=3840x1600 / interlace=0 / total-frames=0 / level-idc=51 / high-tier=1 / uhd-bd=0 / ref=4 / no-allow-non-conformance / repeat-headers / annexb / aud / hrd / info / hash=0 / no-temporal-layers / no-open-gop / min-keyint=1 / keyint=24 / bframes=4 / b-adapt=2 / b-pyramid / bframe-bias=0 / rc-lookahead=25 / lookahead-slices=4 / scenecut=40 / no-intra-refresh / ctu=64 / min-cu-size=8 / rect / no-amp / max-tu-size=32 / tu-inter-depth=1 / tu-intra-depth=1 / limit-tu=0 / rdoq-level=2 / dynamic-rd=0.00 / no-ssim-rd / signh-i-d-e / no-tskip / nr-intra=0 / nr-inter=0 / no-constrained-intra / no-strong-intra-smoothing / max-merge=3 / limit-refs=3 / limit-modes / me=3 / subme=3 / merange=57 / temporal-mvp / weightp / no-weightb / no-analyze-src-pics / deblock=-2:-2 / no-sao / no-sao-non-deblock / rd=4 / no-early-skip / rskip / no-fast-intra / no-tskip-fast / no-cu-lossless / no-b-intra / no-splitrd-skip / rdpenalty=0 / psy-rd=2.00 / psy-rdoq=1.00 / no-rd-refine / analysis-reuse-mode=0 / no-lossless / cbqpoffs=0 / crqpoffs=0 / rc=crf / crf=17.0 / qcomp=0.60 / qpstep=4 / stats-write=0 / stats-read=0 / vbv-maxrate=160000 / vbv-bufsize=160000 / vbv-init=0.9 / crf-max=0.0 / crf-min=0.0 / ipratio=1.40 / pbratio=1.30 / aq-mode=1 / aq-strength=1.00 / cutree / zone-count=0 / no-strict-cbr / qg-size=32 / no-rc-grain / qpmax=69 / qpmin=0 / no-const-vbv / sar=1 / overscan=0 / videoformat=5 / range=0 / colorprim=9 / transfer=16 / colormatrix=9 / chromaloc=1 / chromaloc-top=2 / chromaloc-bottom=2 / display-window=0 / master-display=G(13250,34500)B(7500,3000)R(34000,16000)WP (15635,16450)L(40000000,50) / max-cll=1274,315 / min-luma=0 / max-luma=1023 / log2-max-poc-lsb=8 / vui-timing-info / vui-hrd-info / slices=1 / opt-qp-pps / opt-ref-list-length-pps / no-multi-pass-opt-rps / scenecut-bias=0.05 / no-opt-cu-delta-qp / no-aq-motion / hdr / hdr-opt / no-dhdr10-opt / analysis-reuse-level=5 / scale-factor=0 / refine-intra=0 / refine-inter=0 / refine-mv=0 / no-limit-sao / ctu-info=0
    Default : Yes
    Forced : No
    Color range : Limited
    Color primaries : BT.2020
    Transfer characteristics : PQ
    Matrix coefficients : BT.2020 non-constant
    Mastering display color primaries : Display P3
    Mastering display luminance : min: 0.0050 cd/m2, max: 4000 cd/m2
    Maximum Content Light Level : 1274 cd/m2
    Maximum Frame-Average Light Level : 315 cd/m2

    Audio 1
    ID : 2
    Format : DTS
    Format/Info : Digital Theater Systems
    Codec ID : A_DTS
    Duration : 1 h 49 min
    Bit rate mode : Constant
    Bit rate : 755 kb/s
    Channel(s) : 6 channels
    Channel layout : C L R Ls Rs LFE
    Sampling rate : 48.0 kHz
    Frame rate : 93.750 FPS (512 SPF)
    Bit depth : 24 bits
    Compression mode : Lossy
    Delay relative to video : 25 s 801 ms
    Stream size : 591 MiB (6%)
    Language : English
    Default : No
    Forced : No

    Audio 2
    ID : 3
    Format : AC-3
    Format/Info : Audio Coding 3
    Commercial name : Dolby Digital
    Codec ID : A_AC3
    Duration : 1 h 49 min
    Bit rate mode : Constant
    Bit rate : 384 kb/s
    Channel(s) : 6 channels
    Channel layout : L R C LFE Ls Rs
    Sampling rate : 48.0 kHz
    Frame rate : 31.250 FPS (1536 SPF)
    Bit depth : 16 bits
    Compression mode : Lossy
    Delay relative to video : 25 s 801 ms
    Stream size : 301 MiB (3%)
    Language : Thai
    Service kind : Complete Main
    Default : Yes
    Forced : No

    Text 1
    ID : 4
    Format : VobSub
    Muxing mode : zlib
    Codec ID : S_VOBSUB
    Codec ID/Info : Picture based subtitle format used on DVDs
    Duration : 1 h 39 min
    Bit rate : 4 573 b/s
    Count of elements : 939
    Stream size : 3.24 MiB (0%)
    Language : English
    Default : No
    Forced : No

    Text 2
    ID : 5
    Format : UTF-8
    Codec ID : S_TEXT/UTF8
    Codec ID/Info : UTF-8 Plain Text
    Duration : 1 h 39 min
    Bit rate : 34 b/s
    Count of elements : 939
    Stream size : 25.2 KiB (0%)
    Language : English
    Default : No
    Forced : No

    Text 3
    ID : 6
    Format : PGS
    Muxing mode : zlib
    Codec ID : S_HDMV/PGS
    Codec ID/Info : Picture based subtitle format used on BDs/HD-DVDs
    Duration : 1 h 39 min
    Bit rate : 19.2 kb/s
    Count of elements : 1878
    Stream size : 13.6 MiB (0%)
    Language : English
    Default : Yes
    Forced : No

    Text 4
    ID : 7
    Format : PGS
    Muxing mode : zlib
    Codec ID : S_HDMV/PGS
    Codec ID/Info : Picture based subtitle format used on BDs/HD-DVDs
    Duration : 1 h 39 min
    Bit rate : 19.2 kb/s
    Count of elements : 1878
    Stream size : 13.6 MiB (0%)
    Language : English
    Default : No
    Forced : No

    Text 5
    ID : 8
    Format : VobSub
    Muxing mode : zlib
    Codec ID : S_VOBSUB
    Codec ID/Info : Picture based subtitle format used on DVDs
    Duration : 1 h 49 min
    Bit rate : 3 560 b/s
    Count of elements : 708
    Stream size : 2.78 MiB (0%)
    Language : Thai
    Default : No
    Forced : No

    Text 6
    ID : 9
    Format : UTF-8
    Codec ID : S_TEXT/UTF8
    Codec ID/Info : UTF-8 Plain Text
    Duration : 1 h 49 min
    Bit rate : 64 b/s
    Count of elements : 708
    Stream size : 51.9 KiB (0%)
    Language : Thai
    Default : No
    Forced : No

    Text 7
    ID : 10
    Format : PGS
    Muxing mode : zlib
    Codec ID : S_HDMV/PGS
    Codec ID/Info : Picture based subtitle format used on BDs/HD-DVDs
    Duration : 1 h 49 min
    Bit rate : 16.1 kb/s
    Count of elements : 1416
    Stream size : 12.6 MiB (0%)
    Language : Thai
    Default : No
    Forced : No

    Text 8
    ID : 11
    Format : PGS
    Muxing mode : zlib
    Codec ID : S_HDMV/PGS
    Codec ID/Info : Picture based subtitle format used on BDs/HD-DVDs
    Duration : 1 h 49 min
    Bit rate : 16.1 kb/s
    Count of elements : 1416
    Stream size : 12.6 MiB (0%)
    Language : Thai
    Default : No
    Forced : No




    Download: cornfile
    http://cornfile.com/dnqr2oyjw0ts
    Download: mekafile
    http://www.mekafile.com/dl.php?f=Enfa8bbRstZp

  2. The Following 2 Users Say Thank You to Duckload.us For This Useful Post:

    apichartdear (03-15-2019), Wesker_TOT (04-22-2019)

  3. #2
    Senior Member
    Join Date
    Dec 2013
    Posts
    1,570
    Thanks
    3,523
    Thanked 0 Times in 0 Posts
    ขอบคุณครับ...

+ Reply to Thread

Thread Information

Users Browsing this Thread

There are currently 1 users browsing this thread. (0 members and 1 guests)

     

Posting Permissions

  • You may not post new threads
  • You may not post replies
  • You may not post attachments
  • You may not edit your posts