+ Reply to Thread
Results 1 to 1 of 1
  1. #1
    Administrators Duckload.us's Avatar
    Join Date
    Dec 2010
    Posts
    100,885
    Thanks
    9
    Thanked 102,471 Times in 49,011 Posts

    Question [ฝรั่ง]-[ 4K Ultra HD ] • Fantastic Beasts: The Crimes of Grindelwald (2018) : สัตว์มหัศจรรย์: อาชญากรรมของกรินเดลวัลด์ • [พากย์ไทย มาสเตอร์ 5.1+ เสียงอังกฤษ TrueHD 7.1.Atmos] • [บรรยายไทย + อังกฤษ] • [เสียงไทย 5.1+ ซับไทย PGS ]

    Fantastic Beasts: The Crimes of Grindelwald



    Rating: 6.7/10 Year: 2018 Genres: Adventure / Family / Fantasy Runtime: 134 min Language: English / French Director: David Yates Writers: J.K. Rowling / J.K. Rowling Cast: Johnny Depp / Kevin Guthrie / Carmen Ejogoโ€ฆ

    Fantastic Beasts: The Crimes of Grindelwald - สัตว์มหัศจรรย์: อาชญากรรมของกรินเดลวัลด์
    การเดินทางครั้งที่ 2 ในโลกเวทมนตร์ชุดใหม่ของ เจ.เค. โรว์ลิ่ง เรื่องราวจากตอนจบของภาคแรก พ่อมดมืดผู้ทรงพลัง เกลเลิร์ต กรินเดลวัลด์ (จอห์นนี่ เด็ปป์) ถูกจับกุมโดย MACUSA (สภาเวทมนตร์แห่งสหรัฐอเมริกา) ด้วยความช่วยเหลือจากนิวท์ สคามันเดอร์ (เอ็ดดี้ เรดเมย์น) แต่กรินเดลวัลด์ก็ได้ทำตามคำขู่ของตน ด้วยการหลบหนีจากที่คุมขัง
    และเริ่มรวบรวมเหล่าสาวกซึ่งส่วนใหญ่ไม่ได้สงสัยในจุ ดประสงค์ที่แท้จริงของเขา...
    นั่นคือการยกสถานะของพ่อมดแม่มดเลือดบริสุทธิ์ให้ขึ้ นปกครองเหล่าประชากรมนุษย์ที่ไร้พลังเวทมนตร์ เพื่อขัดขวางแผนการของกรินเดลวัลด์ อัลบัส ดัมเบิลดอร์ (จู๊ด ลอว์) ได้ขอความช่วยเหลือจากอดีตนักเรียนของเขา นิวท์ สคามันเดอร์ ซึ่งตกลงรับภารกิจนี้โดยไม่รู้ถึงอันตรายที่รออยู่เบ ื้องหน้า เมื่อโลกเวทมนตร์เกิดการแบ่งแยกรุนแรงขึ้นเรื่อย ๆ ความแตกแยกก็ปรากฎชัด
    ขณะที่ความรักและความซื่อสัตย์ถูกทดสอบแม้กระทั่งในห มู่เพื่อนฝูงและครอบครัว!!!

    Format : Matroska
    Format version : Version 4
    File size : 58.4 GiB
    Duration : 2 h 14 min
    Overall bit rate mode : Variable
    Overall bit rate : 62.1 Mb/s
    Movie name : [email protected] [email protected]
    Encoded date : UTC 2019-03-11 11:20:42
    Writing application : mkvmerge v21.0.0 ('Tardigrades Will Inherit The Earth') 64-bit
    Writing library : libebml v1.3.5 + libmatroska v1.4.8
    Cover : Yes
    Attachments : cover_land.jpg / small_cover.jpg / small_cover_land.jpg / cover.jpg

    Video 1
    ID : 1
    Format : HEVC
    Format/Info : High Efficiency Video Coding
    Commercial name : HDR10
    Format profile : Main [email protected]@High
    Codec ID : V_MPEGH/ISO/HEVC
    Duration : 2 h 13 min
    Bit rate : 50.5 Mb/s
    Width : 3 840 pixels
    Height : 2 160 pixels
    Display aspect ratio : 16:9
    Frame rate mode : Constant
    Frame rate : 23.976 (24000/1001) FPS
    Color space : YUV
    Chroma subsampling : 4:2:0 (Type 2)
    Bit depth : 10 bits
    Bits/(Pixel*Frame) : 0.254
    Stream size : 47.2 GiB (81%)
    Title : [email protected] [email protected]
    Default : Yes
    Forced : No
    Color range : Limited
    Color primaries : BT.2020
    Transfer characteristics : PQ
    Matrix coefficients : BT.2020 non-constant
    Mastering display color primaries : Display P3
    Mastering display luminance : min: 0.0050 cd/m2, max: 4000 cd/m2
    Maximum Content Light Level : 3241 cd/m2
    Maximum Frame-Average Light Level : 902 cd/m2

    Video 2
    ID : 2
    Format : HEVC
    Format/Info : High Efficiency Video Coding
    Commercial name : HDR10
    Format profile : Main [email protected]@High
    Codec ID : V_MPEGH/ISO/HEVC
    Duration : 2 h 13 min
    Bit rate : 2 096 kb/s
    Width : 1 920 pixels
    Height : 1 080 pixels
    Display aspect ratio : 16:9
    Frame rate mode : Constant
    Frame rate : 23.976 (24000/1001) FPS
    Color space : YUV
    Chroma subsampling : 4:2:0 (Type 2)
    Bit depth : 10 bits
    Bits/(Pixel*Frame) : 0.042
    Stream size : 1.96 GiB (3%)
    Title : [email protected] [email protected]
    Default : No
    Forced : No
    Color range : Limited
    Color primaries : BT.2020
    Transfer characteristics : PQ
    Matrix coefficients : BT.2020 non-constant
    Mastering display color primaries : Display P3
    Mastering display luminance : min: 0.0050 cd/m2, max: 4000 cd/m2

    Audio 1
    ID : 3
    Format : MLP FBA 16-ch
    Format/Info : Meridian Lossless Packing FBA with 16-channel presentation
    Commercial name : Dolby TrueHD with Dolby Atmos
    Codec ID : A_TRUEHD
    Duration : 2 h 13 min
    Bit rate mode : Variable
    Bit rate : 3 457 kb/s
    Maximum bit rate : 5 013 kb/s
    Channel(s) : 8 channels
    Channel layout : L R C LFE Ls Rs Lb Rb
    Sampling rate : 48.0 kHz
    Frame rate : 1 200.000 FPS (40 SPF)
    Compression mode : Lossless
    Stream size : 3.23 GiB (6%)
    Title : [email protected] [email protected]
    Language : English
    Default : Yes
    Forced : No
    Number of dynamic objects : 15
    Bed channel count : 1 channel
    Bed channel configuration : LFE

    Audio 2
    ID : 4
    Format : DTS XLL
    Format/Info : Digital Theater Systems
    Commercial name : DTS-HD Master Audio
    Codec ID : A_DTS
    Duration : 2 h 13 min
    Bit rate mode : Variable
    Bit rate : 3 538 kb/s
    Channel(s) : 8 channels
    Channel layout : C L R LFE Lb Rb Lss Rss
    Sampling rate : 48.0 kHz
    Frame rate : 93.750 FPS (512 SPF)
    Bit depth : 24 bits
    Compression mode : Lossless
    Delay relative to video : -9 ms
    Stream size : 3.31 GiB (6%)
    Title : [email protected] [email protected]
    Language : English
    Default : No
    Forced : No

    Audio 3
    ID : 5
    Format : AC-3
    Format/Info : Audio Coding 3
    Commercial name : Dolby Digital
    Codec ID : A_AC3
    Duration : 2 h 13 min
    Bit rate mode : Constant
    Bit rate : 448 kb/s
    Channel(s) : 6 channels
    Channel layout : L R C LFE Ls Rs
    Sampling rate : 48.0 kHz
    Frame rate : 31.250 FPS (1536 SPF)
    Bit depth : 16 bits
    Compression mode : Lossy
    Stream size : 429 MiB (1%)
    Title : [email protected] [email protected]
    Language : English
    Service kind : Complete Main
    Default : No
    Forced : No

    Audio 4
    ID : 6
    Format : AC-3
    Format/Info : Audio Coding 3
    Commercial name : Dolby Digital
    Codec ID : A_AC3
    Duration : 2 h 13 min
    Bit rate mode : Constant
    Bit rate : 448 kb/s
    Channel(s) : 6 channels
    Channel layout : L R C LFE Ls Rs
    Sampling rate : 48.0 kHz
    Frame rate : 31.250 FPS (1536 SPF)
    Bit depth : 16 bits
    Compression mode : Lossy
    Delay relative to video : 23 ms
    Stream size : 429 MiB (1%)
    Title : [email protected] [email protected]
    Language : English
    Service kind : Complete Main
    Default : No
    Forced : No

    Audio 5
    ID : 7
    Format : AC-3
    Format/Info : Audio Coding 3
    Commercial name : Dolby Digital
    Codec ID : A_AC3
    Duration : 2 h 13 min
    Bit rate mode : Constant
    Bit rate : 448 kb/s
    Channel(s) : 6 channels
    Channel layout : L R C LFE Ls Rs
    Sampling rate : 48.0 kHz
    Frame rate : 31.250 FPS (1536 SPF)
    Bit depth : 16 bits
    Compression mode : Lossy
    Delay relative to video : 23 ms
    Stream size : 429 MiB (1%)
    Title : [email protected] [email protected]
    Language : French
    Service kind : Complete Main
    Default : No
    Forced : No

    Audio 6
    ID : 8
    Format : AC-3
    Format/Info : Audio Coding 3
    Commercial name : Dolby Digital
    Codec ID : A_AC3
    Duration : 2 h 13 min
    Bit rate mode : Constant
    Bit rate : 448 kb/s
    Channel(s) : 6 channels
    Channel layout : L R C LFE Ls Rs
    Sampling rate : 48.0 kHz
    Frame rate : 31.250 FPS (1536 SPF)
    Bit depth : 16 bits
    Compression mode : Lossy
    Delay relative to video : 23 ms
    Stream size : 429 MiB (1%)
    Title : [email protected] [email protected]
    Language : Spanish
    Service kind : Complete Main
    Default : No
    Forced : No

    Audio 7
    ID : 9
    Format : AC-3
    Format/Info : Audio Coding 3
    Commercial name : Dolby Digital
    Codec ID : A_AC3
    Duration : 2 h 13 min
    Bit rate mode : Constant
    Bit rate : 448 kb/s
    Channel(s) : 6 channels
    Channel layout : L R C LFE Ls Rs
    Sampling rate : 48.0 kHz
    Frame rate : 31.250 FPS (1536 SPF)
    Bit depth : 16 bits
    Compression mode : Lossy
    Delay relative to video : 23 ms
    Stream size : 429 MiB (1%)
    Title : [email protected] [email protected]
    Language : Portuguese
    Service kind : Complete Main
    Default : No
    Forced : No

    Audio 8
    ID : 20
    Format : AC-3
    Format/Info : Audio Coding 3
    Commercial name : Dolby Digital
    Codec ID : A_AC3
    Duration : 2 h 13 min
    Bit rate mode : Constant
    Bit rate : 448 kb/s
    Channel(s) : 6 channels
    Channel layout : L R C LFE Ls Rs
    Sampling rate : 48.0 kHz
    Frame rate : 31.250 FPS (1536 SPF)
    Bit depth : 16 bits
    Compression mode : Lossy
    Delay relative to video : -9 ms
    Stream size : 429 MiB (1%)
    Title : Thai BluRay [email protected]@
    Language : Thai
    Service kind : Complete Main
    Default : No
    Forced : Yes

    Text 1
    ID : 10
    Format : UTF-8
    Codec ID : S_TEXT/UTF8
    Codec ID/Info : UTF-8 Plain Text
    Duration : 2 h 3 min
    Bit rate : 41 b/s
    Count of elements : 1265
    Stream size : 37.1 KiB (0%)
    Title : English-SRT
    Language : English
    Default : Yes
    Forced : No

    Text 2
    ID : 11
    Format : UTF-8
    Codec ID : S_TEXT/UTF8
    Codec ID/Info : UTF-8 Plain Text
    Duration : 2 h 13 min
    Bit rate : 43 b/s
    Count of elements : 1506
    Stream size : 42.3 KiB (0%)
    Title : English-SDH-SRT
    Language : English
    Default : No
    Forced : No

    Text 3
    ID : 12
    Format : PGS
    Muxing mode : zlib
    Codec ID : S_HDMV/PGS
    Codec ID/Info : Picture based subtitle format used on BDs/HD-DVDs
    Duration : 2 h 13 min
    Bit rate : 27.8 kb/s
    Count of elements : 3012
    Stream size : 26.6 MiB (0%)
    Title : English-PGS
    Language : English
    Default : No
    Forced : No

    Text 4
    ID : 13
    Format : PGS
    Muxing mode : zlib
    Codec ID : S_HDMV/PGS
    Codec ID/Info : Picture based subtitle format used on BDs/HD-DVDs
    Duration : 2 h 12 min
    Bit rate : 21.0 kb/s
    Count of elements : 2504
    Stream size : 20.0 MiB (0%)
    Title : French-PGS
    Language : French
    Default : No
    Forced : No

    Text 5
    ID : 14
    Format : PGS
    Muxing mode : zlib
    Codec ID : S_HDMV/PGS
    Codec ID/Info : Picture based subtitle format used on BDs/HD-DVDs
    Duration : 2 h 12 min
    Bit rate : 22.9 kb/s
    Count of elements : 2496
    Stream size : 21.8 MiB (0%)
    Title : Spanish-PGS
    Language : Spanish
    Default : No
    Forced : No

    Text 6
    ID : 15
    Format : PGS
    Muxing mode : zlib
    Codec ID : S_HDMV/PGS
    Codec ID/Info : Picture based subtitle format used on BDs/HD-DVDs
    Duration : 2 h 12 min
    Bit rate : 22.6 kb/s
    Count of elements : 2508
    Stream size : 21.5 MiB (0%)
    Title : Portuguese-PGS
    Language : Portuguese
    Default : No
    Forced : No

    Text 7
    ID : 16
    Format : PGS
    Muxing mode : zlib
    Codec ID : S_HDMV/PGS
    Codec ID/Info : Picture based subtitle format used on BDs/HD-DVDs
    Duration : 2 h 12 min
    Bit rate : 13.1 kb/s
    Count of elements : 2512
    Stream size : 12.5 MiB (0%)
    Title : Arabic-PGS
    Language : Arabic
    Default : No
    Forced : No

    Text 8
    ID : 17
    Format : PGS
    Muxing mode : zlib
    Codec ID : S_HDMV/PGS
    Codec ID/Info : Picture based subtitle format used on BDs/HD-DVDs
    Duration : 2 h 12 min
    Bit rate : 22.7 kb/s
    Count of elements : 2500
    Stream size : 21.6 MiB (0%)
    Title : Greek-PGS
    Language : Greek
    Default : No
    Forced : No

    Text 9
    ID : 18
    Format : PGS
    Muxing mode : zlib
    Codec ID : S_HDMV/PGS
    Codec ID/Info : Picture based subtitle format used on BDs/HD-DVDs
    Duration : 2 h 12 min
    Bit rate : 21.5 kb/s
    Count of elements : 2506
    Stream size : 20.5 MiB (0%)
    Title : Turkish-PGS
    Language : Turkish
    Default : No
    Forced : No

    Text 10
    ID : 19
    Format : PGS
    Muxing mode : zlib
    Codec ID : S_HDMV/PGS
    Codec ID/Info : Picture based subtitle format used on BDs/HD-DVDs
    Duration : 2 h 12 min
    Bit rate : 231 b/s
    Count of elements : 22
    Stream size : 226 KiB (0%)
    Title : French-FORCED-PGS
    Language : French
    Default : No
    Forced : No

    Text 11
    ID : 21
    Format : PGS
    Muxing mode : zlib
    Codec ID : S_HDMV/PGS
    Codec ID/Info : Picture based subtitle format used on BDs/HD-DVDs
    Duration : 2 h 14 min
    Bit rate : 36.3 kb/s
    Count of elements : 2518
    Stream size : 34.9 MiB (0%)
    Title : Thai PGS
    Language : Thai
    Default : No
    Forced : Yes

    Text 12
    ID : 22
    Format : VobSub
    Muxing mode : zlib
    Codec ID : S_VOBSUB
    Codec ID/Info : Picture based subtitle format used on DVDs
    Duration : 2 h 14 min
    Bit rate : 7 789 b/s
    Count of elements : 1259
    Stream size : 7.48 MiB (0%)
    Title : Thai 1080p
    Language : Thai
    Default : No
    Forced : Yes

    Text 13
    ID : 23
    Format : PGS
    Muxing mode : zlib
    Codec ID : S_HDMV/PGS
    Codec ID/Info : Picture based subtitle format used on BDs/HD-DVDs
    Duration : 2 h 14 min
    Bit rate : 36.3 kb/s
    Count of elements : 2518
    Stream size : 34.9 MiB (0%)
    Title : Thai PGS Yellow
    Language : Thai
    Default : No
    Forced : Yes

    Text 14
    ID : 24
    Format : VobSub
    Muxing mode : zlib
    Codec ID : S_VOBSUB
    Codec ID/Info : Picture based subtitle format used on DVDs
    Duration : 2 h 14 min
    Bit rate : 7 789 b/s
    Count of elements : 1259
    Stream size : 7.48 MiB (0%)
    Title : Thai 1080p Yellow
    Language : Thai
    Default : No
    Forced : Yes

    Menu
    00:00:00.000 : :Chapter 1
    00:07:15.309 : :Chapter 2
    00:21:39.381 : :Chapter 3
    00:32:56.849 : :Chapter 4
    00:41:41.123 : :Chapter 5
    00:50:26.189 : :Chapter 6
    00:58:21.539 : :Chapter 7
    01:12:02.860 : :Chapter 8
    01:20:23.610 : :Chapter 9
    01:34:50.059 : :Chapter 10
    01:43:08.557 : :Chapter 11
    01:51:42.237 : :Chapter 12
    02:00:31.641 : :Chapter 13


    Download: cornfile
    http://cornfile.com/id5s7gdx6wh4
    Download: mekafile
    http://www.mekafile.com/dl.php?f=nK3b11bRuoW8

  2. The Following User Says Thank You to Duckload.us For This Useful Post:

    NaiWan (03-17-2019)

+ Reply to Thread

Thread Information

Users Browsing this Thread

There are currently 1 users browsing this thread. (0 members and 1 guests)

     

Posting Permissions

  • You may not post new threads
  • You may not post replies
  • You may not post attachments
  • You may not edit your posts