+ Reply to Thread
Results 1 to 1 of 1
  1. #1
    Senior Member
    Join Date
    Feb 2018
    Posts
    1,053
    Thanks
    0
    Thanked 390 Times in 273 Posts

    Angry [˹ѧҡ] [] No Escape (1994) : ˡĵ !!! [§: 5.1 ,ѧ 5.1 - :,ѧ+Ѻ PGS]










    No.Escape.1994.1080p.HDTV.DD5.1.ENTHD.mkv
    Format : Matroska
    Format version : Version 4 / Version 2
    File size : 5.79 GiB
    Duration : 1 h 53 min
    Overall bit rate mode : Variable
    Overall bit rate : 7 318 kb/s
    Movie name : No.Escape.1994.1080p.HDTV.DD5.1.ENTHD
    Encoded date : UTC 2017-06-28 12:24:03
    Writing application : mkvmerge v9.7.1 ('Pandemonium') 64bit
    Writing library : libebml v1.3.4 + libmatroska v1.4.5

    Video
    ID : 1
    Format : AVC
    Format/Info : Advanced Video Codec
    Format profile : [email protected]
    Format settings, CABAC : Yes
    Format settings, ReFrames : 4 frames
    Format settings, GOP : M=8, N=24
    Codec ID : V_MPEG4/ISO/AVC
    Duration : 1 h 53 min
    Bit rate mode : Variable
    Bit rate : 6 179 kb/s
    Maximum bit rate : 40.0 Mb/s
    Width : 1 920 pixels
    Height : 1 080 pixels

    Display aspect ratio : 16:9
    Frame rate mode : Variable
    Frame rate : 26.208 FPS
    Original frame rate : 25.000 FPS
    Color space : YUV
    Chroma subsampling : 4:2:0
    Bit depth : 8 bits
    Scan type : MBAFF
    Scan type, store method : Interleaved fields
    Scan order : Top Field First
    Bits/(Pixel*Frame) : 0.114
    Stream size : 4.88 GiB (84%)
    Title : enthdmovieclub
    Language : English
    Default : Yes
    Forced : No
    Color range : Limited
    Color primaries : BT.709
    Transfer characteristics : BT.709
    Matrix coefficients : BT.709

    Audio #1
    ID : 2
    Format : AC-3
    Format/Info : Audio Coding 3
    Format settings, Endianness : Big
    Codec ID : A_AC3
    Duration : 1 h 53 min
    Bit rate mode : Constant
    Bit rate : 448 kb/s
    Channel(s) : 6 channels
    Channel positions : Front: L C R, Side: L R, LFE
    Sampling rate : 48.0 kHz
    Frame rate : 31.250 FPS (1536 spf)
    Bit depth : 16 bits
    Compression mode : Lossy
    Delay relative to video : 12 ms
    Stream size : 363 MiB (6%)
    Title : Eng AC3 5.1
    Language : English
    Service kind : Complete Main
    Default : No
    Forced : No

    Audio #2
    ID : 3
    Format : AC-3
    Format/Info : Audio Coding 3
    Format settings, Endianness : Big
    Codec ID : A_AC3
    Duration : 1 h 53 min
    Bit rate mode : Constant
    Bit rate : 192 kb/s
    Channel(s) : 2 channels
    Channel positions : Front: L R
    Sampling rate : 48.0 kHz
    Frame rate : 31.250 FPS (1536 spf)
    Bit depth : 16 bits
    Compression mode : Lossy
    Stream size : 155 MiB (3%)
    Title : Eng Stereo
    Language : English
    Service kind : Complete Main
    Default : No
    Forced : No

    Audio #3
    ID : 4
    Format : AC-3
    Format/Info : Audio Coding 3
    Format settings, Endianness : Big
    Codec ID : A_AC3
    Duration : 1 h 53 min
    Bit rate mode : Constant
    Bit rate : 448 kb/s
    Channel(s) : 6 channels
    Channel positions : Front: L C R, Side: L R, LFE
    Sampling rate : 48.0 kHz
    Frame rate : 31.250 FPS (1536 spf)
    Bit depth : 16 bits
    Compression mode : Lossy
    Delay relative to video : 12 ms
    Stream size : 363 MiB (6%)
    Title : Thai AC3 5.1
    Language : Thai

    Service kind : Complete Main
    Default : Yes
    Forced : Yes

    Text #1
    ID : 5
    Format : UTF-8
    Codec ID : S_TEXT/UTF8
    Codec ID/Info : UTF-8 Plain Text
    Duration : 1 h 47 min
    Bit rate : 38 b/s
    Count of elements : 842
    Stream size : 30.5 KiB (0%)
    Title : Eng
    Language : English
    Default : No
    Forced : No

    Text #2
    ID : 6
    Format : VobSub
    Muxing mode : zlib
    Codec ID : S_VOBSUB
    Codec ID/Info : Picture based subtitle format used on DVDs
    Duration : 1 h 48 min
    Bit rate : 1 594 b/s
    Count of elements : 836
    Stream size : 1.24 MiB (0%)
    Title : Thai 480p
    Language : Thai
    Default : Yes
    Forced : Yes

    Text #3
    ID : 7
    Format : VobSub
    Muxing mode : zlib
    Codec ID : S_VOBSUB
    Codec ID/Info : Picture based subtitle format used on DVDs
    Duration : 1 h 48 min
    Bit rate : 3 186 b/s
    Count of elements : 836
    Stream size : 2.47 MiB (0%)
    Title : Thai 1080p Tahoma
    Language : Thai
    Default : No
    Forced : Yes

    Text #4
    ID : 8
    Format : VobSub
    Muxing mode : zlib
    Codec ID : S_VOBSUB
    Codec ID/Info : Picture based subtitle format used on DVDs
    Duration : 1 h 48 min
    Bit rate : 3 186 b/s
    Count of elements : 836
    Stream size : 2.47 MiB (0%)
    Title : Thai 1080p Tahoma LOW
    Language : Thai
    Default : No
    Forced : Yes

    Text #5
    ID : 9
    Format : PGS
    Muxing mode : zlib
    Codec ID : S_HDMV/PGS
    Codec ID/Info : Picture based subtitle format used on BDs/HD-DVDs
    Duration : 1 h 48 min
    Bit rate : 11.2 kb/s
    Count of elements : 1672
    Stream size : 8.69 MiB (0%)
    Title : Thai PGS Tahoma
    Language : Thai

    Default : No
    Forced : Yes

    Text #6
    ID : 10
    Format : PGS
    Muxing mode : zlib
    Codec ID : S_HDMV/PGS
    Codec ID/Info : Picture based subtitle format used on BDs/HD-DVDs
    Duration : 1 h 48 min
    Bit rate : 11.2 kb/s
    Count of elements : 1672
    Stream size : 8.69 MiB (0%)
    Title : Thai PGS Tahoma LOW
    Language : Thai
    Default : No
    Forced : Yes

    Text #7
    ID : 11
    Format : VobSub
    Muxing mode : zlib
    Codec ID : S_VOBSUB
    Codec ID/Info : Picture based subtitle format used on DVDs
    Duration : 1 h 48 min
    Bit rate : 3 629 b/s
    Count of elements : 836
    Stream size : 2.82 MiB (0%)
    Title : Thai 1080p Angsana
    Language : Thai
    Default : No
    Forced : Yes

    Text #8
    ID : 12
    Format : VobSub
    Muxing mode : zlib
    Codec ID : S_VOBSUB
    Codec ID/Info : Picture based subtitle format used on DVDs
    Duration : 1 h 48 min
    Bit rate : 3 629 b/s
    Count of elements : 836
    Stream size : 2.82 MiB (0%)
    Title : Thai 1080p Angsana LOW
    Language : Thai
    Default : No
    Forced : Yes

    Text #9
    ID : 13
    Format : PGS
    Muxing mode : zlib
    Codec ID : S_HDMV/PGS
    Codec ID/Info : Picture based subtitle format used on BDs/HD-DVDs
    Duration : 1 h 48 min
    Bit rate : 12.9 kb/s
    Count of elements : 1672
    Stream size : 9.99 MiB (0%)
    Title : Thai PGS Angsana
    Language : Thai

    Default : No
    Forced : Yes

    Text #10
    ID : 14
    Format : PGS
    Muxing mode : zlib
    Codec ID : S_HDMV/PGS
    Codec ID/Info : Picture based subtitle format used on BDs/HD-DVDs
    Duration : 1 h 48 min
    Bit rate : 12.9 kb/s
    Count of elements : 1672
    Stream size : 9.99 MiB (0%)
    Title : Thai PGS Angsana LOW
    Language : Thai
    Default : No
    Forced : Yes

    ★ ☆ ✮Modified By EntHD_ProMaster@enthdmovieclub✮ ☆ ★








    2022 ͺԹ ( ͵) ʹյԡ¸ԹͧɰҹѧüѧѺѭҢͧ ͧж١觵ѧ͹Ѻ˹觺ѹ ҧ㹤ء͹Ҥ ѹѧͧعçٹҪҡõǩҨ ҵԡ¶֧Ե蹡ѹ
    ͺԹ ( ͵)շҧ͡͡ҡԵͨ˹ Ѻ͡!!!


    ---------------------------------------------------------------------------------------------------------------

    ***й㹡Ŵҡ纵ҧ***

    ### IDM 㹡Ŵ Фõ駤 8 ǹ㹡óշ IDM 鹵͹ŴԴǹ¢ͧ IDM ##




    DOWNLOAD

    >>Ѥ VIP cornfile <<

    >> ԸѤ VIP cornfile <<


    ԴѾവͧ

    https://enthdmovieclub.blogspot.com/
    Last edited by @@[email protected]@; 03-14-2019 at 06:51 PM.

Thread Information

Users Browsing this Thread

There are currently 1 users browsing this thread. (0 members and 1 guests)

     

Posting Permissions

  • You may not post new threads
  • You may not post replies
  • You may not post attachments
  • You may not edit your posts