+ Reply to Thread
Results 1 to 3 of 3
  1. #1
    Administrators Duckload.us's Avatar
    Join Date
    Dec 2010
    Posts
    100,872
    Thanks
    9
    Thanked 102,435 Times in 48,996 Posts

    Question [ฝรั่ง]-[* ใหม่*] Bernie The Dolphin (2018) : เบอร์นี่ โลมาน้อย หัวใจมหาสมุทร [1080p] [* 1080p.WEB-DL.H264.AC3.THR5.1 [email protected] *] [พากย์ไทยโรง 5.1 + เสียงอังกฤษ 5.1] [บรรยายอังกฤษ]



    ••• [email protected] •••
    พากย์ไทยโรง 5.1 + เสียงอังกฤษ 5.1 + บรรยายอังกฤษ

    Bernie The Dolphin เหตุการณ์ที่ เซนต์ออกัสติน รัฐฟลอริดา ประเทศสหรัฐอเมริกา “เบอร์นี่ โลมาน้อย หัวใจมหาสมุทร” คือเรื่องราวของพี่ชายและน้องสาวจากครอบครัวที่รักใน การผจญภัย สองพี่น้องได้พบ ปลาโลมาตัวหนึ่งที่พลัดหลงจากครอบครัวของมัน และแผนลับของกลุ่มคนที่จะทำลายชายหาดและบ้านของปลาโล มา เพื่อนใหม่ของพวกเขา เพื่อที่จะหยุดแผนการของคนร้าย พวกเขาทั้งสองคนกับหนึ่งตัว ต้องรวมพลังกัน ที่จะหาวิธีแก้ไขและป้องกันเหล่าสิ่งมีชีวิตที่อยู่ใ นท้องทะเล และสำคัญที่สุดเพื่อที่จะช่วยเหลือเพื่อนคนสำคัญของพ วกเธอ โลมาน้อย “เบอร์นี่”


    Format : Matroska
    Format version : Version 4
    File size : 3.33 GiB
    Duration : 1 h 28 min
    Overall bit rate : 5 408 kb/s
    Movie name : Bernie The Dolphin (2018)[email protected]

    Video
    ID : 1
    Format : AVC
    Format/Info : Advanced Video Codec
    Format profile : [email protected]
    Format settings : CABAC / 5 Ref Frames
    Format settings, CABAC : Yes
    Format settings, ReFrames : 5 frames
    Codec ID : V_MPEG4/ISO/AVC
    Duration : 1 h 28 min
    Bit rate : 4 572 kb/s
    Width : 1 908 pixels
    Height : 804 pixels
    Display aspect ratio : 2.40:1
    Frame rate mode : Constant
    Frame rate : 23.976 (24000/1001) FPS
    Color space : YUV
    Chroma subsampling : 4:2:0
    Bit depth : 8 bits
    Scan type : Progressive
    Bits/(Pixel*Frame) : 0.124
    Stream size : 2.82 GiB (85%)
    Title : Bernie The Dolphin (2018)[email protected]
    Language : English
    Default : Yes
    Forced : No
    Color range : Limited
    Color primaries : BT.709
    Transfer characteristics : BT.709
    Matrix coefficients : BT.709

    Audio 1
    ID : 2
    Format : AC-3
    Format/Info : Audio Coding 3
    Commercial name : Dolby Digital
    Codec ID : A_AC3
    Duration : 1 h 28 min
    Bit rate mode : Constant
    Bit rate : 448 kb/s
    Channel(s) : 6 channels
    Channel layout : L R C LFE Ls Rs
    Sampling rate : 48.0 kHz
    Frame rate : 31.250 FPS (1536 SPF)
    Bit depth : 16 bits
    Compression mode : Lossy
    Delay relative to video : -42 ms
    Stream size : 283 MiB (8%)
    Title : ThaiRong 5.1 @ 448 kb/s By [email protected]
    Language : Thai
    Service kind : Complete Main
    Default : Yes
    Forced : Yes

    Audio 2
    ID : 3
    Format : AC-3
    Format/Info : Audio Coding 3
    Commercial name : Dolby Digital
    Codec ID : A_AC3
    Duration : 1 h 28 min
    Bit rate mode : Constant
    Bit rate : 384 kb/s
    Channel(s) : 6 channels
    Channel layout : L R C LFE Ls Rs
    Sampling rate : 48.0 kHz
    Frame rate : 31.250 FPS (1536 SPF)
    Bit depth : 16 bits
    Compression mode : Lossy
    Delay relative to video : -42 ms
    Stream size : 242 MiB (7%)
    Title : English 5.1 @ 384 kb/s
    Language : English
    Service kind : Complete Main
    Default : No
    Forced : No

    Text
    ID : 4
    Format : UTF-8
    Codec ID : S_TEXT/UTF8
    Codec ID/Info : UTF-8 Plain Text
    Duration : 1 h 23 min
    Bit rate : 70 b/s
    Count of elements : 1326
    Stream size : 43.1 KiB (0%)
    Title : English
    Language : English
    Default : Yes
    Forced : No

    Menu
    00:00:00.000 : en:1
    00:03:02.000 : en:2
    00:12:38.000 : en:3
    00:19:41.000 : en:4
    00:26:52.000 : en:5
    00:34:46.000 : en:6
    00:43:23.000 : en:7
    00:52:52.000 : en:8
    01:04:13.000 : en:9
    01:13:27.000 : en:10
    01:22:36.000 : en:11


    [/COLOR]












    Download: cornfile
    http://cornfile.com/pjpoflti8ay9
    Download: mekafile
    http://www.mekafile.com/dl.php?f=2t38ffbRxnE1

  2. The Following 2 Users Say Thank You to Duckload.us For This Useful Post:

    Posedon (03-17-2019), Tellmon (03-16-2019)

  3. #2
    Senior Member
    Join Date
    Jun 2014
    Posts
    452
    Thanks
    0
    Thanked 0 Times in 0 Posts
    ขอบคุณครับ

  4. #3
    Senior Member Posedon's Avatar
    Join Date
    Apr 2011
    Posts
    869
    Thanks
    907
    Thanked 0 Times in 0 Posts
    Thank you very much

+ Reply to Thread

Thread Information

Users Browsing this Thread

There are currently 1 users browsing this thread. (0 members and 1 guests)

     

Posting Permissions

  • You may not post new threads
  • You may not post replies
  • You may not post attachments
  • You may not edit your posts