+ Reply to Thread
Results 1 to 2 of 2
  1. #1
    Administrators Duckload.us's Avatar
    Join Date
    Dec 2010
    Posts
    103,458
    Thanks
    9
    Thanked 106,341 Times in 50,351 Posts

    Question []-[* 3D *]Aquaman 2018 [Full 3D] DTS-HDMA 7.1+DDP7.1+TrueHD 7.1 Atmos-Blu-ray.Other.1080p. [3D]-[ҡ ]



    General
    Complete name : H:\\BDMV\PLAYLIST\00000.mpls
    Format : Blu-ray Playlist
    File size : 862 Bytes
    Duration : 2h 23mn
    Overall bit rate mode : Variable
    Overall bit rate : 1 bps

    Video
    ID : 4114 (0x1012) / 4113 (0x1011)
    Menu ID : 1 (0x1)
    Format : AVC
    Format/Info : Advanced Video Codec
    Format profile : Stereo [email protected] / [email protected]
    Format settings, CABAC : Yes
    Format settings, ReFrames : 2 frames
    Codec ID : 27
    Duration : 2h 23mn
    Bit rate mode : Variable
    Width : 1 920 pixels
    Height : 1 080 pixels
    Display aspect ratio : 16:9
    Frame rate : 23.976 (24000/1001) fps
    Color space : YUV
    Chroma subsampling : 4:2:0
    Bit depth : 8 bits
    Scan type : Progressive
    format_identifier : HDMV
    Source : 00001.m2ts / 00000.m2ts

    Audio #1
    ID : 4352 (0x1100)
    Menu ID : 1 (0x1)
    Format : DTS
    Format/Info : Digital Theater Systems
    Format profile : MA / Core
    Mode : 16
    Format settings, Endianness : Big
    Muxing mode : Stream extension
    Codec ID : 134
    Duration : 2h 23mn
    Bit rate mode : Variable / Constant
    Bit rate : Unknown / 1 509 Kbps
    Channel(s) : 6 channels
    Channel positions : Front: L C R, Side: L R, LFE
    Sampling rate : 48.0 KHz
    Frame rate : 93.750 fps (512 spf)
    Bit depth : 16 bits
    Compression mode : Lossless / Lossy
    Language : English
    Source : 00000.m2ts

    Audio #2
    ID : 4353 (0x1101)
    Menu ID : 1 (0x1)
    Format : AC-3
    Format/Info : Audio Coding 3
    Mode extension : CM (complete main)
    Format settings, Endianness : Big
    Codec ID : 129
    Duration : 2h 23mn
    Bit rate mode : Constant
    Bit rate : 448 Kbps
    Channel(s) : 6 channels
    Channel positions : Front: L C R, Side: L R, LFE
    Sampling rate : 48.0 KHz
    Frame rate : 31.250 fps (1536 spf)
    Compression mode : Lossy
    Stream size : 459 MiB
    Language : English
    bsid : 6
    dialnorm : -27
    dialnorm : -27 dB
    compr : -0.28
    compr : -0.28 dB
    acmod : 7
    lfeon : 1
    dialnorm_Average : -27
    dialnorm_Average : -27 dB
    dialnorm_Minimum : -27
    dialnorm_Minimum : -27 dB
    dialnorm_Maximum : -27
    dialnorm_Maximum : -27 dB
    dialnorm_Count : 427
    compr_Average : 1.05
    compr_Average : 1.05 dB
    compr_Minimum : -0.28
    compr_Minimum : -0.28 dB
    compr_Maximum : 3.88
    compr_Maximum : 3.88 dB
    compr_Count : 427
    format_identifier : AC-3
    Source : 00000.m2ts

    Audio #3
    ID : 4354 (0x1102)
    Menu ID : 1 (0x1)
    Format : DTS
    Format/Info : Digital Theater Systems
    Mode : 16
    Format settings, Endianness : Big
    Codec ID : 130
    Duration : 2h 23mn
    Bit rate mode : Constant
    Bit rate : 1 509 Kbps
    Channel(s) : 6 channels
    Channel positions : Front: L C R, Side: L R, LFE
    Sampling rate : 48.0 KHz
    Frame rate : 93.750 fps (512 spf)
    Bit depth : 24 bits
    Compression mode : Lossy
    Stream size : 1.51 GiB
    Language : English
    Source : 00000.m2ts

    Audio #4
    ID : 4355 (0x1103)
    Menu ID : 1 (0x1)
    Format : AC-3
    Format/Info : Audio Coding 3
    Mode extension : CM (complete main)
    Format settings, Endianness : Big
    Codec ID : 129
    Duration : 2h 23mn
    Bit rate mode : Constant
    Bit rate : 448 Kbps
    Channel(s) : 6 channels
    Channel positions : Front: L C R, Side: L R, LFE
    Sampling rate : 48.0 KHz
    Frame rate : 31.250 fps (1536 spf)
    Compression mode : Lossy
    Stream size : 459 MiB
    Language : Thai
    bsid : 8
    dialnorm : -31
    dialnorm : -31 dB
    acmod : 7
    lfeon : 1
    dialnorm_Average : -27
    dialnorm_Average : -27 dB
    dialnorm_Minimum : -31
    dialnorm_Minimum : -31 dB
    dialnorm_Maximum : -27
    dialnorm_Maximum : -27 dB
    dialnorm_Count : 427
    compr_Average : 4.08
    compr_Average : 4.08 dB
    compr_Minimum : -0.28
    compr_Minimum : -0.28 dB
    compr_Maximum : 5.74
    compr_Maximum : 5.74 dB
    compr_Count : 395
    format_identifier : AC-3
    Source : 00000.m2ts

    Audio #5
    ID : 4356 (0x1104)
    Menu ID : 1 (0x1)
    Format : AC-3
    Format/Info : Audio Coding 3
    Mode extension : CM (complete main)
    Format settings, Endianness : Big
    Codec ID : 129
    Duration : 2h 23mn
    Bit rate mode : Constant
    Bit rate : 640 Kbps
    Channel(s) : 6 channels
    Channel positions : Front: L C R, Side: L R, LFE
    Sampling rate : 48.0 KHz
    Frame rate : 31.250 fps (1536 spf)
    Compression mode : Lossy
    Stream size : 656 MiB
    Language : English
    bsid : 6
    dialnorm : -31
    dialnorm : -31 dB
    acmod : 7
    lfeon : 1
    dialnorm_Average : -31
    dialnorm_Average : -31 dB
    dialnorm_Minimum : -31
    dialnorm_Minimum : -31 dB
    dialnorm_Maximum : -31
    dialnorm_Maximum : -31 dB
    dialnorm_Count : 427
    format_identifier : AC-3
    Source : 00000.m2ts

    Audio #6
    ID : 4357 (0x1105)
    Menu ID : 1 (0x1)
    Format : DTS
    Format/Info : Digital Theater Systems
    Format profile : MA / Core
    Mode : 16
    Format settings, Endianness : Big
    Muxing mode : Stream extension
    Codec ID : 134
    Duration : 2h 23mn
    Bit rate mode : Variable / Constant
    Bit rate : Unknown / 1 509 Kbps
    Channel(s) : 8 channels / 6 channels
    Channel positions : Front: L C R, Side: L R, Back: L R, LFE / Front: L C R, Side: L R, LFE
    Sampling rate : 48.0 KHz
    Frame rate : 93.750 fps (512 spf)
    Bit depth : 24 bits
    Compression mode : Lossless / Lossy
    Language : English
    Source : 00000.m2ts

    Audio #7
    ID : 4358 (0x1106)
    Menu ID : 1 (0x1)
    Format : E-AC-3
    Format/Info : Audio Coding 3
    Format settings, Endianness : Big
    Codec ID : 132
    Duration : 2h 23mn
    Bit rate mode : Constant
    Bit rate : 576 Kbps
    Channel(s) : 6 channels
    Channel positions : Front: L C R, Side: L R, LFE
    Sampling rate : 48.0 KHz
    Frame rate : 187.500 fps (256 spf)
    Compression mode : Lossy
    Stream size : 591 MiB
    Language : English
    bsid : 16
    dialnorm : -22
    dialnorm : -22 dB
    compr : -0.28
    compr : -0.28 dB
    acmod : 7
    lfeon : 1
    dialnorm_Average : -22
    dialnorm_Average : -22 dB
    dialnorm_Minimum : -22
    dialnorm_Minimum : -22 dB
    dialnorm_Maximum : -22
    dialnorm_Maximum : -22 dB
    dialnorm_Count : 427
    compr_Average : 3.79
    compr_Average : 3.79 dB
    compr_Minimum : -0.28
    compr_Minimum : -0.28 dB
    compr_Maximum : 5.46
    compr_Maximum : 5.46 dB
    compr_Count : 427
    format_identifier : AC-3
    Source : 00000.m2ts

    Audio #8
    ID : 4359 (0x1107)
    Menu ID : 1 (0x1)
    Format : AC-3
    Format/Info : Audio Coding 3
    Mode extension : CM (complete main)
    Format settings, Endianness : Big
    Codec ID : 129
    Duration : 2h 23mn
    Bit rate mode : Constant
    Bit rate : 384 Kbps
    Channel(s) : 6 channels
    Channel positions : Front: L C R, Side: L R, LFE
    Sampling rate : 48.0 KHz
    Frame rate : 31.250 fps (1536 spf)
    Compression mode : Lossy
    Stream size : 394 MiB
    Language : English
    bsid : 6
    dialnorm : -22
    dialnorm : -22 dB
    compr : 0.53
    compr : 0.53 dB
    dynrng : 0.27
    dynrng : 0.27 dB
    acmod : 7
    lfeon : 1
    dialnorm_Average : -22
    dialnorm_Average : -22 dB
    dialnorm_Minimum : -22
    dialnorm_Minimum : -22 dB
    dialnorm_Maximum : -22
    dialnorm_Maximum : -22 dB
    dialnorm_Count : 427
    compr_Average : 4.45
    compr_Average : 4.45 dB
    compr_Minimum : 0.53
    compr_Minimum : 0.53 dB
    compr_Maximum : 5.74
    compr_Maximum : 5.74 dB
    compr_Count : 427
    dynrng_Average : 4.27
    dynrng_Average : 4.27 dB
    dynrng_Minimum : 0.27
    dynrng_Minimum : 0.27 dB
    dynrng_Maximum : 5.88
    dynrng_Maximum : 5.88 dB
    dynrng_Count : 427
    format_identifier : AC-3
    Source : 00000.m2ts

    Audio #9
    ID : 4360 (0x1108)
    Menu ID : 1 (0x1)
    Format : DTS
    Format/Info : Digital Theater Systems
    Mode : 16
    Format settings, Endianness : Big
    Codec ID : 130
    Duration : 2h 23mn
    Bit rate mode : Constant
    Bit rate : 1 509 Kbps
    Channel(s) : 6 channels
    Channel positions : Front: L C R, Side: L R, LFE
    Sampling rate : 48.0 KHz
    Frame rate : 93.750 fps (512 spf)
    Bit depth : 24 bits
    Compression mode : Lossy
    Stream size : 1.51 GiB
    Language : English
    Source : 00000.m2ts

    Audio #10
    ID : 4361 (0x1109)
    Menu ID : 1 (0x1)
    Format : Atmos / TrueHD / AC-3
    Mode extension : CM (complete main)
    Format settings, Endianness : Big
    Muxing mode : Stream extension
    Codec ID : 131
    Duration : 2h 23mn
    Bit rate mode : Variable / Constant
    Bit rate : 448 Kbps
    Maximum bit rate : 6 144 Kbps
    Channel(s) : Object Based / 8 channels / 6 channels
    Channel positions : Object Based / Front: L C R, Side: L R, Back: L R, LFE / Front: L C R, Side: L R, LFE
    Sampling rate : / 48.0 KHz / 48.0 KHz
    Frame rate : 31.250 fps (1536 spf)
    Compression mode : Lossless
    Stream size : 459 MiB
    Language : English
    bsid : 6
    dialnorm : -27
    dialnorm : -27 dB
    compr : -0.28
    compr : -0.28 dB
    acmod : 7
    lfeon : 1
    dialnorm_Average : -27
    dialnorm_Average : -27 dB
    dialnorm_Minimum : -27
    dialnorm_Minimum : -27 dB
    dialnorm_Maximum : -27
    dialnorm_Maximum : -27 dB
    dialnorm_Count : 426
    compr_Average : 2.77
    compr_Average : 2.77 dB
    compr_Minimum : -0.28
    compr_Minimum : -0.28 dB
    compr_Maximum : 3.88
    compr_Maximum : 3.88 dB
    compr_Count : 426
    dynrng_Average : 2.68
    dynrng_Average : 2.68 dB
    dynrng_Minimum : 0.00
    dynrng_Minimum : 0.00 dB
    dynrng_Maximum : 3.88
    dynrng_Maximum : 3.88 dB
    dynrng_Count : 426
    format_identifier : AC-3
    Source : 00000.m2ts

    Audio #11
    ID : 4362 (0x110A)
    Menu ID : 1 (0x1)
    Format : DTS
    Format/Info : Digital Theater Systems
    Format profile : MA / Core
    Mode : 16
    Format settings, Endianness : Big
    Muxing mode : Stream extension
    Codec ID : 134
    Duration : 2h 23mn
    Bit rate mode : Variable / Constant
    Bit rate : Unknown / 1 509 Kbps
    Channel(s) : 6 channels
    Channel positions : Front: L C R, Side: L R, LFE
    Sampling rate : 48.0 KHz
    Frame rate : 93.750 fps (512 spf)
    Bit depth : 16 bits
    Compression mode : Lossless / Lossy
    Language : English
    Source : 00000.m2ts

    Text #1
    ID : 4608 (0x1200)
    Menu ID : 1 (0x1)
    Format : PGS
    Codec ID : 144
    Duration : 2h 23mn
    Language : English
    Source : 00000.m2ts

    Text #2
    ID : 4609 (0x1201)
    Menu ID : 1 (0x1)
    Format : PGS
    Codec ID : 144
    Duration : 2h 23mn
    Language : English
    Source : 00000.m2ts

    Text #3
    ID : 4610 (0x1202)
    Menu ID : 1 (0x1)
    Format : PGS
    Codec ID : 144
    Duration : 2h 23mn
    Language : English
    Source : 00000.m2ts

    Text #4
    ID : 4611 (0x1203)
    Menu ID : 1 (0x1)
    Format : PGS
    Codec ID : 144
    Duration : 2h 23mn
    Language : English
    Source : 00000.m2ts

    Text #5
    ID : 4612 (0x1204)
    Menu ID : 1 (0x1)
    Format : PGS
    Codec ID : 144
    Duration : 2h 23mn
    Delay relative to video : 100ms
    Language : Thai
    Source : 00000.m2ts

    Text #6
    ID : 4613 (0x1205)
    Menu ID : 1 (0x1)
    Format : PGS
    Codec ID : 144
    Duration : 2h 23mn
    Delay relative to video : 100ms
    Language : Thai
    Source : 00000.m2ts

    Text #7
    ID : 4614 (0x1206)
    Menu ID : 1 (0x1)
    Format : PGS
    Codec ID : 144
    Duration : 2h 23mn
    Delay relative to video : 100ms
    Language : Thai
    Source : 00000.m2ts

    Text #8
    ID : 4615 (0x1207)
    Menu ID : 1 (0x1)
    Format : PGS
    Codec ID : 144
    Duration : 2h 23mn
    Language : Thai
    Source : 00000.m2ts

    Menu
    00:00:00.000 : Chapter 1
    00:11:09.293 : Chapter 2
    00:22:11.621 : Chapter 3
    00:22:11.622 : Chapter 4
    00:30:11.017 : Chapter 5
    00:30:11.018 : Chapter 6
    00:40:28.717 : Chapter 7
    00:50:24.646 : Chapter 8
    01:01:15.755 : Chapter 9
    01:08:57.091 : Chapter 10
    01:21:41.270 : Chapter 11 / Chapter 12
    01:34:50.434 : Chapter 13
    01:34:50.435 : Chapter 14
    01:39:37.429 : Chapter 15
    01:39:37.430 : Chapter 16
    01:49:32.814 : Chapter 17
    01:49:32.815 : Chapter 18
    02:01:36.537 : Chapter 19
    02:01:36.538 : Chapter 20
    02:10:19.895 : Chapter 21





    Download: cornfile
    http://cornfile.com/k984dqc5u0lr
    Download: mekafile
    http://www.mekafile.com/dl.php?f=CW99f7bRPk2S

  2. #2
    Member
    Join Date
    May 2012
    Posts
    97
    Thanks
    0
    Thanked 0 Times in 0 Posts
    Version Full 3DSBS HOU ˹¤Ѻ

Thread Information

Users Browsing this Thread

There are currently 1 users browsing this thread. (0 members and 1 guests)

     

Posting Permissions

  • You may not post new threads
  • You may not post replies
  • You may not post attachments
  • You may not edit your posts