+ Reply to Thread
Results 1 to 2 of 2
  1. #1
    Administrators Duckload.us's Avatar
    Join Date
    Dec 2010
    Posts
    107,802
    Thanks
    7
    Thanked 112,641 Times in 52,120 Posts

    Question [ฝรั่ง]- [ V.2 ] • Alita: Battle Angel (2019) : อลิตา แบทเทิล แองเจิ้ล • [720p] • [* HQ.TS.V2.HC.x264.AC3.THR2.0 [email protected] *] [พากย์ไทยโรง 2.0 + เสียงอังกฤษ 2.0] • [บรรยายจีนฝัง]





    ภาพยนตร์ผลงาน ของ โรเบิร์ต รอดริเกซ
    Alita: Battle Angel ภาพยนตร์ดัดแปลงจากการ์ตูนญี่ปุ่นเรื่อง เพชฌฆาตไซบอร์ก หรือในชื่อญี่ปุ่นว่า Gunnm ซึ่งเขียนโดย คิชิโระ ยูกิโตะ!
    &

    ••• [email protected] •••
    พากย์ไทยโรง 2.0 + เสียงอังกฤษ 2.0 + บรรยายจีนฝัง




    wrote:

    Alita Battle Angel Alita: Battle Angel ภาพยนตร์ดัดแปลงจากการ์ตูนญี่ปุ่นเรื่อง เพชฌฆาตไซบอร์ก หรือในชื่อญี่ปุ่นว่า Gunnm ซึ่งเขียนโดย คิชิโระ ยูกิโตะ และได้รับการดัดแปลงเป็นแอนิเมชั่นจากเนื้อเรื่องในห นังสือเล่มแรกๆในชื่อ Battle Angel เรื่องราวเกิดขึ้นในอนาคตอันไกลโพ้น ซึ่งไซบอร์คและหุ่นยนตร์กลายเป็นเรื่องปกติ เมืองลอยฟ้าทิฟาเรส เก็บงำความลับอันดำมืด มันทิ้งขยะไร้ค่าลงสู่โล่งเบื้องล่าง และที่ลานทิ้งขยะนั้นเอง แพทย์ไซบอร์ค อิโดะ พบเข้ากับชิ้นส่วนหัวและลำตัวของเด็กสาวไซบอร์คที่ยั งมีชีวิตอยู่ได้ มีเพียงสมองของเธอเท่านั้นที่เป็นมนุษย์ ส่วนอื่นในร่างกายของเธอล้วนเป็นเครื่องจักร เธอสูญเสียความทรงจำทั้งหมดในอดีต และได้ชื่อใหม่จากอิโดะ เอลิตา เขาสร้างเธอขึ้นมาใหม่อีกครั้งและกลายเป็นเสมือนบิดา ของเธอในฐานะผู้มอบร่างกายใหม่ให้ อย่างไรก็ตาม ข่าวการฆาตกรรมต่อเนื่องได้เริ่มแพร่กระจายไปในเมือง อลิตาเริ่มสงสัยอิโดะในฐานะผู้ลงมือเพื่อหาชิ้นส่วนร ่างกายให้เธอ แต่เมื่อเธอติดตามเขาออกไปในคืนหนึ่ง จึงได้พบว่าที่แท้เขากำลังตามจับตัวฆาตกร ภายใต้ฐานะ ฮันเตอร์ วอร์ริเออร์ ที่เขาได้รับมอบหมายมา ระหว่างการเข้าปะทะกับฆาตกรตัวจริงนั้น สัญชาติญาณของเด็กสาวก็ทำงาน เธอล้มฆาตกรได้ด้วยศิลปะการต่อสู้โบราณ ผลสุดท้าย เธอจึงตัดสินใจเข้าช่วยเหลืออิโดะในการพิทักษ์ความยุ ติธรรม และได้กลายมาเป็นฮันเตอร์วอร์ริเออร์เช่นกัน เธอปลดล็อคความสามารถและพลังที่แท้จริงของตนเอง เข้าต่อสู้กับศัตรูที่แสนอันตราย และเพื่อนผู้ยึดมั่นในอุดมการณ์!


    wrote:
    *ดู INFO Report คลิ๊ก!*
    Format : Matroska
    Format version : Version 4
    File size : 3.74 GiB
    Duration : 1 h 55 min
    Overall bit rate : 4 614 kb/s

    Movie name : Alita.Battle.Angel.2019.720p.HQ.TS.V2.HC.x264.AC3. [email protected]

    Video
    ID : 1
    Format : AVC
    Format/Info : Advanced Video Codec
    Format profile : [email protected]
    Format settings : CABAC / 4 Ref Frames
    Format settings, CABAC : Yes
    Format settings, ReFrames : 4 frames
    Format settings, GOP : M=1, N=15
    Codec ID : V_MPEG4/ISO/AVC
    Duration : 1 h 55 min
    Bit rate : 3 997 kb/s
    Width : 1 280 pixels
    Height : 492 pixels
    Display aspect ratio : 2.602
    Frame rate mode : Constant
    Frame rate : 23.976 FPS
    Original frame rate : 24.000 FPS
    Standard : Component
    Color space : YUV
    Chroma subsampling : 4:2:0
    Bit depth : 8 bits
    Scan type : Progressive
    Bits/(Pixel*Frame) : 0.265
    Stream size : 3.24 GiB (87%)
    Title : Alita.Battle.Angel.2019.720p.HQ.TS.V2.HC.x264.AC3. [email protected]
    Language : English
    Default : Yes
    Forced : No
    Color range : Limited

    Audio 1
    ID : 2
    Format : AC-3
    Format/Info : Audio Coding 3
    Commercial name : Dolby Digital
    Codec ID : A_AC3
    Duration : 1 h 55 min
    Bit rate mode : Constant
    Bit rate : 384 kb/s
    Channel(s) : 2 channels
    Channel layout : L R
    Sampling rate : 48.0 kHz
    Frame rate : 31.250 FPS (1536 SPF)
    Bit depth : 16 bits
    Compression mode : Lossy
    Stream size : 318 MiB (8%)
    Title : ThaiRong 2.0 @ 384 kb/s By [email protected]
    Language : Thai
    Service kind : Complete Main
    Default : Yes
    Forced : Yes

    Audio 2
    ID : 3
    Format : AAC LC
    Format/Info : Advanced Audio Codec Low Complexity
    Codec ID : A_AAC-2
    Duration : 1 h 55 min
    Bit rate : 231 kb/s
    Channel(s) : 6 channels
    Channel layout : C L R Ls Rs LFE
    Sampling rate : 48.0 kHz
    Frame rate : 46.875 FPS (1024 SPF)
    Compression mode : Lossy
    Delay relative to video : 80 ms
    Stream size : 192 MiB (5%)
    Title : English 2.0 @ 48.0 kHz
    Language : English
    Default : No
    Forced : No



    wrote:











    Quote:






    Download: cornfile
    http://cornfile.com/t2c5qsipf6cr
    Download: mekafile
    http://www.mekafile.com/dl.php?f=sV85e1bRP0gK

  2. The Following User Says Thank You to Duckload.us For This Useful Post:

    Jodz14 (03-29-2019)

  3. #2
    Senior Member
    Join Date
    Mar 2011
    Posts
    1,203
    Thanks
    0
    Thanked 0 Times in 0 Posts
    ขอบคุณครับ

+ Reply to Thread

Thread Information

Users Browsing this Thread

There are currently 1 users browsing this thread. (0 members and 1 guests)

     

Posting Permissions

  • You may not post new threads
  • You may not post replies
  • You may not post attachments
  • You may not edit your posts