+ Reply to Thread
Results 1 to 1 of 1
  1. #1
    Administrators Duckload.us's Avatar
    Join Date
    Dec 2010
    Posts
    101,910
    Thanks
    9
    Thanked 103,918 Times in 49,499 Posts

    Question [ฝรั่ง]-[4K HDR แปลงเป็น 1080p HEVC 10Bits] Aquaman (2018) 4K : IMAX Edition : เจ้าสมุทร • [พากย์ไทย 5.1 + เสียงอังกฤษ TrueHD Atmos + AC-3] • [บรรยายไทย + อังกฤษ]

    Aquaman



    Rating: 7.2/10 Year: 2018 Genres: Action / Adventure / Fantasy / Sci-Fi Runtime: 143 min Language: English Director: James Wan Writers: David Leslie Johnson-McGoldrick / Will Beall / Geoff Johns Cast: Jason Momoa / Amber Heard / Willem Dafoeโ€ฆ Plot:

    Arthur Curry, half human half from Atlantis, goes on a trip of a lifetime. Not only does this adventure compel him to come to terms with his real identity, but it also forces him to discover whether he is entirely worthy of fulfilling his own destiny: becoming a king. Written by Domingo Alvarez


    Aquaman_(2018)_IMAX Edition_4K
    จากวอร์เนอร์ บราเธอร์ส พิคเจอร์ส และ ผู้กำกับ เจมส์ วาน สู่ภาพยนตร์แนวแอคชั่นผจญภัยครั้งใหญ่ กับภาพอันชวนตื่นตะลึงจนแทบหยุดหายใจ
    ในโลกแห่งเจ็ดคาบสมุทร “Aquaman” นำแสดงโดย เจสัน โมมัว ภาพยนตร์เรื่องนี้จะนำคุณไปพบกับที่มาของลูกครึ่งมนุ ษย์-ครึ่งชาวแอตแลนติส อาเธอร์ เคอร์รี่
    และพาไปชมการผจญภัยครั้งสำคัญของชีวิต ที่นอกจากจะบังคับให้เขาต้องเผชิญหน้ากับตัวตนที่แท้ จริงของตนเองแล้ว
    ยังเพื่อให้เขาได้ค้นพบว่าเขาคู่ควรกับสิ่งที่เขาเกิ ดมาเพื่อเป็นหรือไม่...ในฐานะราชา



    Video
    ID : 7
    Format : HEVC
    Format/Info : High Efficiency Video Coding
    Format profile : Main [email protected]@Main
    Codec ID : V_MPEGH/ISO/HEVC
    Duration : 2 h 23 min
    Bit rate : 6 491 kb/s
    Width : 1 920 pixels
    Height : 1 080 pixels
    Display aspect ratio : 16:9
    Frame rate mode : Constant
    Frame rate : 23.976 (24000/1001) FPS
    Color space : YUV
    Chroma subsampling : 4:2:0
    Bit depth : 10 bits
    Bits/(Pixel*Frame) : 0.131
    Stream size : 6.50 GiB (59%)
    Writing library : x265 2.9+1-169e76b6bbcc:[Windows][GCC 8.2.0][64 bit] 10bit
    Encoding settings : cpuid=1111039 / frame-threads=2 / numa-pools=6 / wpp / no-pmode / no-pme / no-psnr / no-ssim / log-level=2 / input-csp=1 / input-res=1920x1080 / interlace=0 / total-frames=206179 / level-idc=0 / high-tier=1 / uhd-bd=0 / ref=3 / no-allow-non-conformance / no-repeat-headers / annexb / no-aud / no-hrd / info / hash=0 / no-temporal-layers / open-gop / min-keyint=23 / keyint=250 / gop-lookahead=0 / bframes=4 / b-adapt=2 / b-pyramid / bframe-bias=0 / rc-lookahead=20 / lookahead-slices=6 / scenecut=40 / radl=0 / no-intra-refresh / ctu=64 / min-cu-size=8 / no-rect / no-amp / max-tu-size=32 / tu-inter-depth=1 / tu-intra-depth=1 / limit-tu=0 / rdoq-level=0 / dynamic-rd=0.00 / no-ssim-rd / signh-i-d-e / no-tskip / nr-intra=0 / nr-inter=0 / no-constrained-intra / strong-intra-smoothing / max-merge=2 / limit-refs=3 / no-limit-modes / me=1 / subme=2 / merange=57 / temporal-mvp / weightp / no-weightb / no-analyze-src-pics / deblock=0:0 / sao / no-sao-non-deblock / rd=3 / no-early-skip / rskip / no-fast-intra / no-tskip-fast / no-cu-lossless / no-b-intra / no-splitrd-skip / rdpenalty=0 / psy-rd=2.00 / psy-rdoq=0.00 / no-rd-refine / no-lossless / cbqpoffs=0 / crqpoffs=0 / rc=crf / crf=20.0 / qcomp=0.60 / qpstep=4 / stats-write=0 / stats-read=0 / ipratio=1.40 / pbratio=1.30 / aq-mode=1 / aq-strength=1.00 / cutree / zone-count=0 / no-strict-cbr / qg-size=32 / no-rc-grain / qpmax=69 / qpmin=0 / no-const-vbv / sar=1 / overscan=0 / videoformat=5 / range=0 / colorprim=2 / transfer=2 / colormatrix=2 / chromaloc=0 / display-window=0 / max-cll=0,0 / min-luma=0 / max-luma=1023 / log2-max-poc-lsb=8 / vui-timing-info / vui-hrd-info / slices=1 / no-opt-qp-pps / no-opt-ref-list-length-pps / no-multi-pass-opt-rps / scenecut-bias=0.05 / no-opt-cu-delta-qp / no-aq-motion / no-hdr / no-hdr-opt / no-dhdr10-opt / no-idr-recovery-sei / analysis-reuse-level=5 / scale-factor=0 / refine-intra=0 / refine-inter=0 / refine-mv=0 / no-limit-sao / ctu-info=0 / no-lowpass-dct / refine-mv-type=0 / copy-pic=1 / max-ausize-factor=1.0 / no-dynamic-refine / no-single-sei
    Default : Yes
    Forced : No

    Audio 1
    ID : 1
    Format : MLP FBA 16-ch
    Format/Info : Meridian Lossless Packing FBA with 16-channel presentation
    Commercial name : Dolby TrueHD with Dolby Atmos
    Codec ID : A_TRUEHD
    Duration : 2 h 23 min
    Bit rate mode : Variable
    Bit rate : 3 579 kb/s
    Maximum bit rate : 6 144 kb/s
    Channel(s) : 8 channels
    Channel layout : L R C LFE Ls Rs Lb Rb
    Sampling rate : 48.0 kHz
    Frame rate : 1 200.000 FPS (40 SPF)
    Compression mode : Lossless
    Delay relative to video : 9 ms
    Stream size : 3.58 GiB (32%)
    Title : Eng - Dolby TrueHD with Dolby Atmos
    Language : English
    Default : Yes
    Forced : No
    Number of dynamic objects : 15
    Bed channel count : 1 channel
    Bed channel configuration : LFE

    Audio 2
    ID : 2
    Format : AC-3
    Format/Info : Audio Coding 3
    Commercial name : Dolby Digital
    Codec ID : A_AC3
    Duration : 2 h 23 min
    Bit rate mode : Constant
    Bit rate : 448 kb/s
    Channel(s) : 6 channels
    Channel layout : L R C LFE Ls Rs
    Sampling rate : 48.0 kHz
    Frame rate : 31.250 FPS (1536 SPF)
    Bit depth : 16 bits
    Compression mode : Lossy
    Delay relative to video : 9 ms
    Stream size : 459 MiB (4%)
    Title : Eng - AC-3 5.1
    Language : English
    Service kind : Complete Main
    Default : No
    Forced : No

    Audio 3
    ID : 3
    Format : AC-3
    Format/Info : Audio Coding 3
    Commercial name : Dolby Digital
    Codec ID : A_AC3
    Duration : 2 h 23 min
    Bit rate mode : Constant
    Bit rate : 448 kb/s
    Channel(s) : 6 channels
    Channel layout : L R C LFE Ls Rs
    Sampling rate : 48.0 kHz
    Frame rate : 31.250 FPS (1536 SPF)
    Bit depth : 16 bits
    Compression mode : Lossy
    Delay relative to video : 32 ms
    Stream size : 459 MiB (4%)
    Title : Tha - AC-3 5.1
    Language : Thai
    Service kind : Complete Main
    Default : No
    Forced : No

    Text 1
    ID : 4
    Format : VobSub
    Muxing mode : zlib
    Codec ID : S_VOBSUB
    Codec ID/Info : Picture based subtitle format used on DVDs
    Duration : 2 h 22 min
    Bit rate : 4 927 b/s
    Count of elements : 1123
    Stream size : 5.01 MiB (0%)
    Language : Thai
    Default : Yes
    Forced : No

    Text 2
    ID : 5
    Format : PGS
    Muxing mode : zlib
    Codec ID : S_HDMV/PGS
    Codec ID/Info : Picture based subtitle format used on BDs/HD-DVDs
    Duration : 2 h 22 min
    Bit rate : 20.5 kb/s
    Count of elements : 2246
    Stream size : 20.9 MiB (0%)
    Language : Thai
    Default : No
    Forced : No

    Text 3
    ID : 6
    Format : PGS
    Muxing mode : zlib
    Codec ID : S_HDMV/PGS
    Codec ID/Info : Picture based subtitle format used on BDs/HD-DVDs
    Duration : 2 h 22 min
    Bit rate : 25.8 kb/s
    Count of elements : 2940
    Stream size : 26.4 MiB (0%)
    Language : English
    Default : No
    Forced : No



    Download: cornfile
    http://cornfile.com/6ktmlj1a5ijh
    Download: mekafile
    http://www.mekafile.com/dl.php?f=3m621dbS0Sst

  2. The Following 2 Users Say Thank You to Duckload.us For This Useful Post:

    agg001 (03-27-2019), smakha (03-29-2019)

+ Reply to Thread

Thread Information

Users Browsing this Thread

There are currently 1 users browsing this thread. (0 members and 1 guests)

     

Posting Permissions

  • You may not post new threads
  • You may not post replies
  • You may not post attachments
  • You may not edit your posts