+ Reply to Thread
Results 1 to 3 of 3
  1. #1
    Administrators Duckload.us's Avatar
    Join Date
    Dec 2010
    Posts
    104,358
    Thanks
    9
    Thanked 107,561 Times in 50,732 Posts

    Question [ฝรั่ง]-[.SDR.10bits]**JAMES BOND 007 COLLECTION 1 - 20 l พยัคฆ์ร้าย 007 คอลเลคชั่น ภาค 1 - 23**[เสียงอังกฤษDTS-HD Master +เสียงไทย DTS มาสเตอร์ : บรรยายไทยคมชัด+อื่นๆ]-Encode.H.265.2160p. [Modified]-[พากย์ไทย บรรยายไทย]



    [ฝรั่ง]-[.SDR.10bits]**Spectre (2015) องค์กรลับดับพยัคฆ์ร้าย 007**[เสียงอังกฤษDTS-HD Master +เสียงไทย DTS มาสเตอร์ : บรรยายไทยคมชัด+อื่นๆ]-Encode.H.265.2160p. [Modified]-[พากย์ไทย บรรยายไทย]



    จมส์ บอนด์เดินทางไปเม็กซิโกซิตีเพื่อทำภารกิจที่สั่งอย่า งไม่เป็นทางการจาก M คนก่อน เขาจัดการชายสองคนที่วางแผนจะระเบิดสนามกีฬาและไล่ตา มมาร์โค ชาร์ราไปจนสู้กันบนเฮลิคอปเตอร์ บอนด์ขโมยแหวนวงหนึ่งจากชาร์ราก่อนจะถีบชาร์ราร่วงจา กเฮลิคอปเตอร์ เมื่อกลับมาที่ลอนดอน บอนด์ถูก M คนใหม่สั่งพักงาน บอนด์พบว่าตอนนี้ M กำลังแย่งชิงอำนาจการบริหารหน่วยสืบราชการลับกับแมกซ ์ เดนบี หรือ C โดย C มีเป้าหมายในการสร้างเครือข่ายข้อมูลลับระหว่างประเท ศและยุบหน่วยสายลับรหัส 00

    บอนด์ขัดคำสั่ง M แล้วเดินทางไปที่โรมเพื่อร่วมงานศพของมาร์โค ชาร์รา เขาติดตามลูชีอา ชาร์รา ภรรยาม่ายของมาร์โคไป โดยเธอบอกบอนด์ว่าจะมีการประชุมลับขององค์กรที่สามีเ ธอสังกัดอยู่ บอนด์ใช้แหวนของชาร์ราลอบเข้าไปในการประชุม แต่ถูกจำหน้าได้จึงหลบหนีออกมาโดยมีมิสเตอร์ฮิงซ์ไล่ ตาม ขณะเดียวกัน มิสมันนีเพนนีบอกบอนด์ว่าข้อมูลในการประชุมที่บอนด์ไ ด้ยินมาจะพาไปหามิสเตอร์ไวต์ อดีตสมาชิกกลุ่มควอนตัม ซึ่งเป็นองค์กรย่อยขององค์กรที่บอนด์ลอบเข้าไป ส่วนบอนด์ขอให้มิสมันนีเพนนีช่วยสืบหาคนที่ชื่อ ฟรันซ์ โอเบอร์เฮาเซอร์

    บอนด์เดินทางไปออสเตรียเพื่อพบกับไวต์ ผู้ซึ่งกำลังจะตายด้วยพิษแทลเลียม ไวต์ขอให้บอนด์ช่วยปกป้องแมเดเลน สวอนน์ ลูกสาวของเขาเพื่อแลกกับข้อมูลที่ตนรู้ ก่อนที่ไวต์จะยิงตัวตาย บอนด์เดินทางไปพบสวอนน์ ซึ่งถูกฮิงซ์จับตัวไป บอนด์จึงไล่ตามด้วยเครื่องบินก่อนจะพาตัวสวอนน์ออกมา ทั้งสองคนไปหา Q ซึ่งตรวจสอบแหวนที่บอนด์ขโมยมาแล้วพบข้อมูลเชื่อมโยง ถึงโอเบอร์เฮาเซอร์ สวอนน์บอกบอนด์และ Q ว่าองค์กรที่ทั้งคู่กำลังสืบหาอยู่มีชื่อว่า สเปกเตอร์ (SPECTRE)

    ทั้งคู่เดินทางไปที่ห้องพักที่ไวต์มาทุกปีในโมร็อกโก แล้วพบว่ามีห้องลับที่ภายในไวต์ใช้เก็บข้อมูลต่าง ๆ บอนด์ใช้ข้อมูลดังกล่าวเดินทางต่อไปยังจุดหมายด้วยรถ ไฟ แต่ขณะโดยสารรถไฟ บอนด์และสวอนน์ถูกฮิงซ์บุกมาทำร้าย บอนด์และฮิงซ์สู้กันจนฝ่ายหลังตกรถไฟไป เมื่อไปถึงจุดหมาย บอนด์และสวอนน์พบว่าเป็นกลุ่มอาคารกลางทะเลทรายและพบ กับฟรันซ์ โอเบอร์เฮาเซอร์ ผู้เป็นลูกชายของฮันส์ โอเบอร์เฮาเซอร์ ผู้อุปการะบอนด์ตอนเด็ก โอเบอร์เฮาเซอร์จับบอนด์ไปทรมานแล้วเปิดเผยว่า C เป็นส่วนหนึ่งของสเปกเตอร์ พร้อมทั้งเผยว่าตนชื่อ เอิร์นส์ สตาฟโร โบลเฟลด์ ซึ่งเป็นชื่อใหม่หลังจากแกล้งตายไปเมื่อ 20 ปีก่อน บอนด์และสวอนน์หลบหนีออกมาได้และระเบิดกลุ่มอาคารดัง กล่าว

    บอนด์และสวอนน์เดินทางกลับไปที่ลอนดอนเพื่อพบกับ M, บิล แทนเนอร์, Q และมันนีเพนนี ทั้งหมดบุกเข้าไปจับกุม C และหาทางหยุดเครือข่ายข้อมูลของ C M กับ C สู้กันจน C ตกตึกเสียชีวิต ส่วนบอนด์และสวอนน์ถูกลักพาตัวไป บอนด์หนีรอดมาได้แล้วพบกับโบลเฟลด์ ซึ่งบอกบอนด์ว่าเขาจับตัวสวอนน์ไปขังไว้ในตึก MI6 เก่าแล้ววางระเบิดไว้ บอนด์หาทางช่วยสวอนน์ออกมาได้ก่อนระเบิดจะทำงาน และไล่ตามเฮลิคอปเตอร์ของโบลเฟลด์ไป บอนด์ใช้ปืนยิงจนเฮลิคอปเตอร์ตก ในที่สุดโบลเฟลด์ก็ถูก M จับกุม ส่วนบอนด์ผละออกมาพร้อมกับสวอนน์


    Video
    ID : 1
    Format : HEVC
    Format/Info : High Efficiency Video Coding
    Format profile : Main [email protected]@Main
    Codec ID : V_MPEGH/ISO/HEVC
    Duration : 2 h 28 min
    Bit rate : 14.9 Mb/s
    Width : 3 840 pixels
    Height : 1 612 pixels
    Original height : 2 160 pixels
    Display aspect ratio : 16:9
    Frame rate mode : Constant
    Frame rate : 23.976 (24000/1001) FPS
    Original frame rate : 23.976 (23976/1000) FPS
    Color space : YUV
    Chroma subsampling : 4:2:0
    Bit depth : 10 bits
    Bits/(Pixel*Frame) : 0.101
    Stream size : 15.4 GiB (73%)
    Language : English
    Default : Yes
    Forced : No
    Color range : Limited
    Color primaries : BT.709
    Transfer characteristics : BT.709
    Matrix coefficients : BT.709

    Audio 1
    ID : 2
    Format : DTS XLL
    Format/Info : Digital Theater Systems
    Commercial name : DTS-HD Master Audio
    Codec ID : A_DTS
    Duration : 2 h 28 min
    Bit rate mode : Variable
    Bit rate : 4 742 kb/s
    Channel(s) : 8 channels
    Channel layout : C L R LFE Lb Rb Lss Rss
    Sampling rate : 48.0 kHz
    Frame rate : 93.750 FPS (512 SPF)
    Bit depth : 24 bits
    Compression mode : Lossless
    Delay relative to video : 7 ms
    Stream size : 4.91 GiB (23%)
    Language : English
    Default : Yes
    Forced : No
    Audio 2
    ID : 3
    Format : DTS
    Format/Info : Digital Theater Systems
    Codec ID : A_DTS
    Duration : 2 h 28 min
    Bit rate mode : Constant
    Bit rate : 768 kb/s
    Channel(s) : 6 channels
    Channel layout : C L R Ls Rs LFE
    Sampling rate : 48.0 kHz
    Frame rate : 93.750 FPS (512 SPF)
    Bit depth : 24 bits
    Compression mode : Lossy
    Delay relative to video : 2 ms
    Stream size : 814 MiB (4%)
    Title : [BD MASTER].DTS
    Language : Thai
    Default : No
    Forced : No

    Text 1
    ID : 4
    Format : PGS
    Muxing mode : zlib
    Codec ID : S_HDMV/PGS
    Codec ID/Info : Picture based subtitle format used on BDs/HD-DVDs
    Duration : 2 h 26 min
    Bit rate : 23.0 kb/s
    Count of elements : 2232
    Stream size : 24.2 MiB (0%)
    Title : AngsanaUPC
    Language : Thai
    Default : Yes
    Forced : No

    Text 2
    ID : 5
    Format : PGS
    Muxing mode : zlib
    Codec ID : S_HDMV/PGS
    Codec ID/Info : Picture based subtitle format used on BDs/HD-DVDs
    Duration : 2 h 26 min
    Bit rate : 21.2 kb/s
    Count of elements : 2232
    Stream size : 22.3 MiB (0%)
    Title : DilleniaUPC
    Language : Thai
    Default : No
    Forced : No

    Text 3
    ID : 6
    Format : PGS
    Muxing mode : zlib
    Codec ID : S_HDMV/PGS
    Codec ID/Info : Picture based subtitle format used on BDs/HD-DVDs
    Duration : 2 h 26 min
    Bit rate : 20.4 kb/s
    Count of elements : 2232
    Stream size : 21.5 MiB (0%)
    Title : Tahoma
    Language : Thai
    Default : No
    Forced : No

    Text 4
    ID : 7
    Format : VobSub
    Muxing mode : zlib
    Codec ID : S_VOBSUB
    Codec ID/Info : Picture based subtitle format used on DVDs
    Duration : 2 h 26 min
    Bit rate : 5 176 b/s
    Count of elements : 1116
    Stream size : 5.44 MiB (0%)
    Title : AngsanaUPC
    Language : Thai
    Default : No
    Forced : No

    Text 5
    ID : 8
    Format : VobSub
    Muxing mode : zlib
    Codec ID : S_VOBSUB
    Codec ID/Info : Picture based subtitle format used on DVDs
    Duration : 2 h 26 min
    Bit rate : 5 047 b/s
    Count of elements : 1116
    Stream size : 5.31 MiB (0%)
    Title : DilleniaUPC
    Language : Thai
    Default : No
    Forced : No

    Text 6
    ID : 9
    Format : VobSub
    Muxing mode : zlib
    Codec ID : S_VOBSUB
    Codec ID/Info : Picture based subtitle format used on DVDs
    Duration : 2 h 26 min
    Bit rate : 4 615 b/s
    Count of elements : 1116
    Stream size : 4.85 MiB (0%)
    Title : Tahoma
    Language : Thai
    Default : No
    Forced : No
    Text 7
    ID : 10
    Format : UTF-8
    Codec ID : S_TEXT/UTF8
    Codec ID/Info : UTF-8 Plain Text
    Duration : 2 h 16 min
    Bit rate : 35 b/s
    Count of elements : 1203
    Stream size : 35.6 KiB (0%)
    Title : English
    Language : English
    Default : No
    Forced : No

    Text 8
    ID : 11
    Format : UTF-8
    Codec ID : S_TEXT/UTF8
    Codec ID/Info : UTF-8 Plain Text
    Duration : 2 h 19 min
    Bit rate : 37 b/s
    Count of elements : 1362
    Stream size : 38.6 KiB (0%)
    Title : English (SDH)
    Language : English
    Default : No
    Forced : No

    Text 9
    ID : 12
    Format : PGS
    Muxing mode : zlib
    Codec ID : S_HDMV/PGS
    Codec ID/Info : Picture based subtitle format used on BDs/HD-DVDs
    Duration : 2 h 19 min
    Bit rate : 25.5 kb/s
    Count of elements : 2724
    Stream size : 25.5 MiB (0%)
    Title : English (SDH)
    Language : English
    Default : No
    Forced : No

    Text 10
    ID : 13
    Format : PGS
    Muxing mode : zlib
    Codec ID : S_HDMV/PGS
    Codec ID/Info : Picture based subtitle format used on BDs/HD-DVDs
    Duration : 2 h 27 min
    Bit rate : 17.7 kb/s
    Count of elements : 2308
    Stream size : 18.6 MiB (0%)
    Title : French
    Language : French
    Default : No
    Forced : No

    Text 11
    ID : 14
    Format : PGS
    Muxing mode : zlib
    Codec ID : S_HDMV/PGS
    Codec ID/Info : Picture based subtitle format used on BDs/HD-DVDs
    Duration : 2 h 27 min
    Bit rate : 20.2 kb/s
    Count of elements : 2222
    Stream size : 21.2 MiB (0%)
    Title : Portuguese
    Language : Portuguese
    Default : No
    Forced : No

    Text 12
    ID : 15
    Format : PGS
    Muxing mode : zlib
    Codec ID : S_HDMV/PGS
    Codec ID/Info : Picture based subtitle format used on BDs/HD-DVDs
    Duration : 2 h 27 min
    Bit rate : 20.3 kb/s
    Count of elements : 2260
    Stream size : 21.3 MiB (0%)
    Title : Spanish
    Language : Spanish
    Default : No
    Forced : No





    A View to a Kill (899).mkv - 18.2 GB
    http://www.mekafile.com/dl.php?f=Rz09e2bRR1Et
    Casino Royale (920).mkv - 19.6 GB
    http://www.mekafile.com/dl.php?f=fK3790bRTID8
    Diamonds Are Forever (885).mkv - 16.5 GB
    http://www.mekafile.com/dl.php?f=vc3137bRLY2v
    Die Another Day (916).mkv - 16.5 GB
    http://www.mekafile.com/dl.php?f=WG7233bRQHyf
    Dr. No (876).mkv - 14.2 GB
    http://www.mekafile.com/dl.php?f=7t60a4bRLVo7
    For Your Eyes Only (895).mkv - 15.9 GB
    http://www.mekafile.com/dl.php?f=be25b9bRWOTG
    From Russia with Love (877).mkv - 15.6 GB
    http://www.mekafile.com/dl.php?f=gj194dbS1rT0
    GoldenEye (909).mkv - 17.9 GB
    http://www.mekafile.com/dl.php?f=3Nb17cbRMBVS
    Live and Let Die (887).mkv - 16.3 GB
    http://www.mekafile.com/dl.php?f=Bj3916bRYjdc
    Moonraker (893).mkv - 17.4 GB
    http://www.mekafile.com/dl.php?f=H4ca84bRYli8
    Octopussy (897).mkv - 18.0 GB
    http://www.mekafile.com/dl.php?f=VPd77fbRMigb
    On Her Majesty's Secret Service (883).mkv - 19.6 GB
    http://www.mekafile.com/dl.php?f=iYd270bRMhis
    Quantum of Solace (922).mkv - 14.5 GB
    http://www.mekafile.com/dl.php?f=C808fbbRRfn5
    Skyfall (926).mkv - 19.3 GB
    http://www.mekafile.com/dl.php?f=Xb1bd3bRUhtE
    Spectre (929).mkv - 21.2 GB
    http://www.mekafile.com/dl.php?f=3C3993bRUibN
    The Man with the Golden Gun (888).mkv - 16.9 GB
    http://www.mekafile.com/dl.php?f=JAcfb1bRLYhK
    The Spy Who Loved Me (891).mkv - 17.3 GB
    http://www.mekafile.com/dl.php?f=lxeefebRYmOY
    Thunderball (879).mkv - 17.3 GB
    http://www.mekafile.com/dl.php?f=yy00bdbRM1ZC
    Tomorrow Never Dies (911).mkv - 15.1 GB
    http://www.mekafile.com/dl.php?f=0p0e83bRPfV9
    You Only Live Twice (881).mkv - 15.9 GB
    http://www.mekafile.com/dl.php?f=Gd2520bRLX46
    Licence to Kill (903).mkv - 18.0 GB
    http://www.mekafile.com/dl.php?f=CZd8e5bS9au7
    The Living Daylights (901).mkv - 16.7 GB
    http://www.mekafile.com/dl.php?f=gj1d09bS9blp
    The World Is Not Enough (913).mkv - 16.1 GB
    http://www.mekafile.com/dl.php?f=JJbf19bS9dXL

  2. The Following 2 Users Say Thank You to Duckload.us For This Useful Post:

    PeBomb (04-09-2019), Wesker_TOT (05-28-2019)

  3. #2
    Member
    Join Date
    Jul 2013
    Posts
    36
    Thanks
    49
    Thanked 1 Time in 1 Post
    ขอตอน Gold Finger ด้วยครับ
    ขอบคุณครับ

  4. #3
    Senior Member
    Join Date
    Dec 2013
    Posts
    1,664
    Thanks
    3,620
    Thanked 0 Times in 0 Posts
    ขอบคุณ มากๆครับ...

+ Reply to Thread

Thread Information

Users Browsing this Thread

There are currently 1 users browsing this thread. (0 members and 1 guests)

     

Posting Permissions

  • You may not post new threads
  • You may not post replies
  • You may not post attachments
  • You may not edit your posts