Mortal Engines



Rating: 6.2/10 Year: 2018 Genres: Action / Adventure / Fantasy / Sci-Fi / Thriller Runtime: 128 min Language: English Director: Christian Rivers Writers: Fran Walsh / Philippa Boyens / Peter Jackson Cast: Hera Hilmar / Robert Sheehan / Hugo Weavingโ€ฆ Plot:

A mysterious young woman, Hester Shaw, emerges as the only one who can stop a giant, predator city on wheels devouring everything in its path. Feral, and fiercely driven by the memory of her mother, Hester joins forces with Tom Natsworthy, an outcast from London, along with Anna Fang, a dangerous outlaw with a bounty on her head.


Mortal Engines สมรภูมิล่าเมือง: จักรกลมรณะ

หลายพันปีหลังจากที่อารยธรรมถูกทำลายจากเหตุการณ์ที่ เกิดขึ้นในกลียุค มนุษย์ได้ปรับตัวและได้พัฒนาวิถีชีวิตใหม่ขึ้น ขณะนี้
เมืองเคลื่อนที่ขนาดใหญ่กำลังตระเวณท่องโลก และไล่ล่าเมืองที่เล็กกว่า ทอม นัทส์เวิร์ธธี (โรเบิร์ต ชีแฮน) ชายหนุ่มซึ่งมาจากระดับล่างของเมืองเคลื่อนที่ของลอน ดอน
เขาพบว่าตัวเองกำลังต่อสู้เพื่ออยู่รอด หลังจากที่ได้เผชิญกับผู้ลี้ภัยสุดอันตราย เฮสเตอร์ ชอว์ (เฮรา ฮิลมาร์) ทั้งสองคนอยู่ต่างขั้วกัน มากันคนละเส้นทาง
แต่กลายมาเป็นพันธมิตรกันได้อย่างไม่น่าเชื่อ และมีเป้าหมายที่จะเปลี่ยนอนาคต!!!
.
.

Mortal Engines กำกับโดย คริสเตียน ริเวอร์ส ซึ่งเคยได้รับรางวัลออสการ์สาขาเทคนิคภาพยอดเยี่ยมจา ก King Kong
โดยร่วมงานกับผู้สร้างรางวัลออสการ์อย่าง ปีเตอร์ แจ็คสัน, ฟราน วอลช์ และ ฟิลิปปา โบเยน ซึ่งร่วมเขียนบทภาพยนตร์เรื่องนี้ด้วย
ภาพยนตร์ดัดแปลงจากหนังสือซีรีย์ดังของฟิลิป รีฟ ในปี 2001

General :Mortal.Engines.2018.1080p.3D.SBS
Unique ID : 267332158508519627756959215103915874465 (0xC91E4D08E4385ADD5EABB311E84858A1)
Complete name : DownloadsMortal.Engines.3D.SBS.AC3.EN.THMortal.Engi nes.2018.3D.SBS.mkv
Format : Matroska
Format version : Version 4
File size : 8.19 GiB
Duration : 2 h 8 min
Overall bit rate : 9 131 kb/s
Movie name : Mortal Engines (2018) : สมรภูมิล่าเมือง: จักรกลมรณะ
Encoded date : UTC 2019-04-03 05:56:43
Writing application : mkvmerge v32.0.0 ('Astral Progressions') 64-bit
Writing library : libebml v1.3.7 + libmatroska v1.5.0
Cover : Yes
Attachments : cover.jpg

Video
ID : 1
Format : AVC
Format/Info : Advanced Video Codec
Format profile : [email protected]
Format settings : 1 Ref Frames
Format settings, CABAC : No
Format settings, ReFrames : 1 frame
Codec ID : V_MPEG4/ISO/AVC
Duration : 2 h 8 min
Bit rate : 8 028 kb/s
Width : 1 920 pixels
Height : 1 080 pixels
Display aspect ratio : 16:9
Frame rate mode : Variable
Frame rate : 24.000 FPS
Color space : YUV
Chroma subsampling : 4:2:0
Bit depth : 8 bits
Scan type : Progressive
Bits/(Pixel*Frame) : 0.161
Stream size : 7.20 GiB (88%)
Title : Mortal Engines (2018) : สมรภูมิล่าเมือง: จักรกลมรณะ
Writing library : 
Language : English
Default : Yes
Forced : No

Audio 1
ID : 2
Format : AC-3
Format/Info : Audio Coding 3
Commercial name : Dolby Digital
Codec ID : A_AC3
Duration : 2 h 8 min
Bit rate mode : Constant
Bit rate : 448 kb/s
Channel(s) : 6 channels
Channel layout : L R C LFE Ls Rs
Sampling rate : 48.0 kHz
Frame rate : 31.250 FPS (1536 SPF)
Bit depth : 16 bits
Compression mode : Lossy
Stream size : 411 MiB (5%)
Language : English
Service kind : Complete Main
Default : No
Forced : No

Audio 2
ID : 3
Format : AC-3
Format/Info : Audio Coding 3
Commercial name : Dolby Digital
Codec ID : A_AC3
Duration : 2 h 8 min
Bit rate mode : Constant
Bit rate : 640 kb/s
Channel(s) : 6 channels
Channel layout : L R C LFE Ls Rs
Sampling rate : 48.0 kHz
Frame rate : 31.250 FPS (1536 SPF)
Bit depth : 16 bits
Compression mode : Lossy
Stream size : 588 MiB (7%)
Language : Thai
Service kind : Complete Main
Default : Yes
Forced : Yes

Text
ID : 4
Format : PGS
Muxing mode : zlib
Codec ID : S_HDMV/PGS
Codec ID/Info : Picture based subtitle format used on BDs/HD-DVDs
Duration : 2 h 7 min
Bit rate : 38.8 kb/s
Count of elements : 2166
Stream size : 35.5 MiB (0%)
Language : Thai
Default : No
Forced : No

Menu
00:00:00.000 : en:Chapter 01
00:09:24.397 : en:Chapter 02
00:16:13.306 : en:Chapter 03
00:24:20.626 : en:Chapter 04
00:31:24.591 : en:Chapter 05
00:35:53.068 : en:Chapter 06
00:41:27.819 : en:Chapter 07
00:44:53.816 : en:Chapter 08
00:50:16.805 : en:Chapter 09
00:54:21.175 : en:Chapter 10
01:00:51.398 : en:Chapter 11
01:07:12.070 : en:Chapter 12
01:11:12.852 : en:Chapter 13
01:17:37.736 : en:Chapter 14
01:25:25.620 : en:Chapter 15
01:33:30.396 : en:Chapter 16
01:39:28.546 : en:Chapter 17
01:47:58.263 : en:Chapter 18
01:52:11.558 : en:Chapter 19
01:58:33.523 : en:Chapter 20





Download: cornfile
http://cornfile.com/8bm6dl09kz4a
Download: mekafile
http://www.mekafile.com/dl.php?f=Feb902bSov3P