[ฝรั่ง]-[* ใหม่ร้อนๆ! *] Mortal Engines (2018)3D-SBS : สมรภูมิล่าเมือง จักรกลมรณะ [ระบบเสียง DTS-HD.MA.7.1.TrueHD.7.1.Atmos etc.] [บรรยายไทยมาสเตอร์ + แปลเอง + อังกฤษ] [*เสียง + ซับไทย From MASTER + ซับไทยแปล คมชัด*]

Mortal Engines (2018) เรื่องย่อ
หลายพันปีหลังจากที่อารยธรรมถูกทำลายจากเหตุการณ์ที่ เกิดขึ้นในกลียุค มนุษย์ได้ปรับตัวและได้พัฒนาวิถีชีวิตใหม่ขึ้น ขณะนี้
เมืองเคลื่อนที่ขนาดใหญ่กำลังตระเวณท่องโลก และไล่ล่าเมืองที่เล็กกว่า ทอม นัทส์เวิร์ธธี (โรเบิร์ต ชีแฮน) ชายหนุ่มซึ่งมาจากระดับล่างของเมืองเคลื่อนที่ของลอน ดอน
เขาพบว่าตัวเองกำลังต่อสู้เพื่ออยู่รอด หลังจากที่ได้เผชิญกับผู้ลี้ภัยสุดอันตราย เฮสเตอร์ ชอว์ (เฮรา ฮิลมาร์) ทั้งสองคนอยู่ต่างขั้วกัน มากันคนละเส้นทาง
แต่กลายมาเป็นพันธมิตรกันได้อย่างไม่น่าเชื่อ และมีเป้าหมายที่จะเปลี่ยนอนาคต!!!



General
Unique ID : 40536477614161025785192215254701681426 (0x1E7F0AA6CD87CFA6BD165068712BAB12)
Complete name : F:\mix load\Mortal.Engines.2018.1080p.3D.BluRay.Half-SBS.x264.TrueHD.7.1.Atmos-FGT\Mortal Engines 2018 3D SBS\Mortal.Engines.2018.1080p.3D.BluRay.Half-SBS.x264.DTS-HD.MA.7.1TrueHD.7.1.Atmos.mkv
Format : Matroska
Format version : Version 4 / Version 2
File size : 22.5 GiB
Duration : 2h 8mn
Overall bit rate mode : Variable
Overall bit rate : 25.1 Mbps
Movie name : Mortal.Engines.2018.1080p.3D.BluRay.Half-SBS.x264.TrueHD.7.1.Atmos-FGT
Encoded date : UTC 2019-04-02 05:01:50
Writing application : mkvmerge v31.0.0 ('Dolores In A Shoestand') 64-bit
Writing library : libebml v1.3.6 + libmatroska v1.4.9
Cover : Yes
Attachments : cover_land.jpg / small_cover.jpg / small_cover_land.jpg / cover.jpg

Video
ID : 1
Format : AVC
Format/Info : Advanced Video Codec
Format profile : [email protected]
Format settings, CABAC : Yes
Format settings, ReFrames : 3 frames
Codec ID : V_MPEG4/ISO/AVC
Duration : 2h 8mn
Bit rate : 15.5 Mbps
Width : 1 920 pixels
Height : 1 080 pixels
Display aspect ratio : 16:9
Frame rate mode : Constant
Frame rate : 23.976 (24000/1001) fps
Color space : YUV
Chroma subsampling : 4:2:0
Bit depth : 8 bits
Scan type : Progressive
Bits/(Pixel*Frame) : 0.312
Stream size : 13.4 GiB (60%)
Title : Mortal.Engines.2018.1080p.3D.BluRay.Half-SBS.x264.TrueHD.7.1.Atmos-FGT
Writing library : x264 core 148
Encoding settings : cabac=1 / ref=3 / deblock=1:-1:-1 / analyse=0x3:0 / me=hex / subme=5 / psy=1 / psy_rd=1.00:0.00 / mixed_ref=0 / me_range=16 / chroma_me=1 / trellis=1 / 8x8dct=1 / cqm=0 / deadzone=21,11 / fast_pskip=0 / chroma_qp_offset=0 / threads=24 / lookahead_threads=6 / sliced_threads=0 / nr=0 / decimate=1 / interlaced=0 / bluray_compat=0 / constrained_intra=0 / bframes=2 / b_pyramid=0 / b_adapt=1 / b_bias=0 / direct=1 / weightb=0 / open_gop=0 / weightp=0 / keyint=24 / keyint_min=2 / scenecut=40 / intra_refresh=0 / rc=abr / mbtree=0 / bitrate=15500 / ratetol=1.0 / qcomp=0.60 / qpmin=0 / qpmax=69 / qpstep=4 / ip_ratio=1.40 / pb_ratio=1.30 / aq=1:1.00
Default : Yes
Forced : No
Color range : Limited
Color primaries : BT.709
Transfer characteristics : BT.709
Matrix coefficients : BT.709

Audio #1
ID : 2
Format : Atmos / TrueHD
Codec ID : A_TRUEHD
Duration : 2h 8mn
Bit rate mode : Variable
Bit rate : 4 520 Kbps
Maximum bit rate : 7 425 Kbps
Channel(s) : Object Based / 8 channels
Channel positions : Object Based / Front: L C R, Side: L R, Back: L R, LFE
Sampling rate : / 48.0 KHz
Frame rate : 1 200.000 fps (40 spf)
Compression mode : Lossless
Stream size : 4.05 GiB (18%)
Title : Mortal.Engines.2018.1080p.3D.BluRay.Half-SBS.x264.TrueHD.7.1.Atmos-FGT
Language : English
Default : Yes
Forced : No

Audio #2
ID : 3
Format : AC-3
Format/Info : Audio Coding 3
Mode extension : CM (complete main)
Format settings, Endianness : Big
Codec ID : A_AC3
Duration : 2h 8mn
Bit rate mode : Constant
Bit rate : 448 Kbps
Channel(s) : 6 channels
Channel positions : Front: L C R, Side: L R, LFE
Sampling rate : 48.0 KHz
Frame rate : 31.250 fps (1536 spf)
Compression mode : Lossy
Stream size : 411 MiB (2%)
Title : Mortal.Engines.2018.1080p.3D.BluRay.Half-SBS.x264.TrueHD.7.1.Atmos-FGT
Language : English
Default : No
Forced : No

Audio #3
ID : 6
Format : AC-3
Format/Info : Audio Coding 3
Mode extension : CM (complete main)
Format settings, Endianness : Big
Codec ID : A_AC3
Duration : 2h 8mn
Bit rate mode : Constant
Bit rate : 640 Kbps
Channel(s) : 6 channels
Channel positions : Front: L C R, Side: L R, LFE
Sampling rate : 48.0 KHz
Frame rate : 31.250 fps (1536 spf)
Compression mode : Lossy
Delay relative to video : 15ms
Stream size : 588 MiB (3%)
Language : Thai
Default : No
Forced : No

Audio #4
ID : 7
Format : DTS
Format/Info : Digital Theater Systems
Format profile : MA / Core
Mode : 16
Format settings, Endianness : Big
Codec ID : A_DTS
Duration : 2h 8mn
Bit rate mode : Variable / Constant
Bit rate : 4 393 Kbps / 1 509 Kbps
Channel(s) : 8 channels / 6 channels
Channel positions : Front: L C R, Side: L R, Back: L R, LFE / Front: L C R, Side: L R, LFE
Sampling rate : 48.0 KHz
Frame rate : 93.750 fps (512 spf)
Bit depth : 24 bits
Compression mode : Lossless / Lossy
Delay relative to video : 15ms
Stream size : 3.94 GiB (18%)
Language : English
Default : No
Forced : No

Text #1
ID : 4
Format : PGS
Muxing mode : zlib
Codec ID : S_HDMV/PGS
Codec ID/Info : Picture based subtitle format used on BDs/HD-DVDs
Duration : 1h 57mn
Bit rate : 43.8 Kbps
Count of elements : 3004
Stream size : 36.9 MiB (0%)
Title : English-PGS
Language : English
Default : Yes
Forced : No

Text #2
ID : 5
Format : PGS
Muxing mode : zlib
Codec ID : S_HDMV/PGS
Codec ID/Info : Picture based subtitle format used on BDs/HD-DVDs
Duration : 25mn 11s
Bit rate : 747 bps
Count of elements : 12
Stream size : 138 KiB (0%)
Title : English-FORCED-PGS
Language : English
Default : No
Forced : No

Text #3
ID : 8
Format : PGS
Muxing mode : zlib
Codec ID : S_HDMV/PGS
Codec ID/Info : Picture based subtitle format used on BDs/HD-DVDs
Duration : 1h 58mn
Bit rate : 24.3 Kbps
Count of elements : 2560
Stream size : 20.6 MiB (0%)
Language : Thai
Default : No
Forced : No

Text #4
ID : 9
Format : PGS
Muxing mode : zlib
Codec ID : S_HDMV/PGS
Codec ID/Info : Picture based subtitle format used on BDs/HD-DVDs
Duration : 1h 58mn
Bit rate : 29.0 Kbps
Count of elements : 2560
Stream size : 24.6 MiB (0%)
Language : Thai
Default : No
Forced : No

Menu
00:00:00.000 : en:Chapter 01
00:09:24.397 : en:Chapter 02
00:16:13.305 : en:Chapter 03
00:24:20.625 : en:Chapter 04
00:31:24.591 : en:Chapter 05
00:35:53.067 : en:Chapter 06
00:41:27.818 : en:Chapter 07
00:44:53.816 : en:Chapter 08
00:50:16.805 : en:Chapter 09
00:54:21.174 : en:Chapter 10
01:00:51.397 : en:Chapter 11
01:07:12.069 : en:Chapter 12
01:11:12.851 : en:Chapter 13
01:17:37.736 : en:Chapter 14
01:25:25.620 : en:Chapter 15
01:33:30.396 : en:Chapter 16
01:39:28.545 : en:Chapter 17
01:47:58.263 : en:Chapter 18
01:52:11.558 : en:Chapter 19
01:58:33.397 : en:Chapter 20


Download: cornfile
http://cornfile.com/nkpweb59gy7e
Download: mekafile
http://www.mekafile.com/dl.php?f=8M5ff9bSlLd7