MKV Rip From DVD Master
[§ 5.1]-[+ѧ]

ѭҵͧ áش ŧҹҡӡѺ Everest Adrift ˴بش͡

Format : Matroska
Format version : Version 4
File size : 1.10 GiB
Duration : 1 h 39 min
Overall bit rate : 1 591 kb/s
Encoded date : UTC 2018-12-27T08:17:35Z

Video
ID : 1
Format : AVC
Format/Info : Advanced Video Codec
Format profile : [email protected]
Format settings : CABAC / 4 Ref Frames
Format settings, CABAC : Yes
Format settings, ReFrames : 4 frames
Codec ID : V_MPEG4/ISO/AVC
Duration : 1 h 39 min
Bit rate : 1 176 kb/s
Width : 720 pixels
Height : 576 pixels
Display aspect ratio : 16:9
Frame rate mode : Constant
Frame rate : 25.000 FPS
Standard : PAL
Color space : YUV
Chroma subsampling : 4:2:0
Bit depth : 8 bits
Scan type : Progressive
Bits/(Pixel*Frame) : 0.113
Stream size : 834 MiB (74%)
Writing library : x264 core 148 r2708 86b7198
Encoding settings : cabac=1 / ref=2 / deblock=1:0:0 / analyse=0x1:0x111 / me=hex / subme=6 / psy=1 / psy_rd=1.00:0.00 / mixed_ref=1 / me_range=16 / chroma_me=1 / trellis=1 / 8x8dct=0 / cqm=0 / deadzone=21,11 / fast_pskip=1 / chroma_qp_offset=-2 / threads=6 / lookahead_threads=1 / sliced_threads=0 / nr=0 / decimate=1 / interlaced=0 / bluray_compat=0 / constrained_intra=0 / bframes=3 / b_pyramid=2 / b_adapt=1 / b_bias=0 / direct=1 / weightb=1 / open_gop=0 / weightp=1 / keyint=250 / keyint_min=25 / scenecut=40 / intra_refresh=0 / rc_lookahead=30 / rc=crf / mbtree=1 / crf=16.0 / qcomp=0.60 / qpmin=0 / qpmax=69 / qpstep=4 / vbv_maxrate=20000 / vbv_bufsize=25000 / crf_max=0.0 / nal_hrd=none / filler=0 / ip_ratio=1.40 / aq=1:1.00
Default : Yes
Forced : No
Color range : Limited
Color primaries : BT.601 PAL
Transfer characteristics : BT.709
Matrix coefficients : BT.601

Audio
ID : 2
Format : AC-3
Format/Info : Audio Coding 3
Commercial name : Dolby Digital
Codec ID : A_AC3
Duration : 1 h 39 min
Bit rate mode : Constant
Bit rate : 384 kb/s
Channel(s) : 6 channels
Channel layout : L R C LFE Ls Rs
Sampling rate : 48.0 kHz
Frame rate : 31.250 FPS (1536 SPF)
Bit depth : 16 bits
Compression mode : Lossy
Delay relative to video : 1 s 995 ms
Stream size : 273 MiB (24%)
Title : Surround
Language : Thai
Service kind : Complete Main
Default : Yes
Forced : No

Text 1
ID : 3
Format : VobSub
Codec ID : S_VOBSUB
Codec ID/Info : Picture based subtitle format used on DVDs
Language : English
Default : No
Forced : No

Text 2
ID : 4
Format : VobSub
Codec ID : S_VOBSUB
Codec ID/Info : Picture based subtitle format used on DVDs
Language : Thai
Default : No
Forced : No

Menu
00:00:00.000 : :Chapter 1
00:00:02.000 : :Chapter 2
00:07:30.760 : :Chapter 3
00:14:10.800 : :Chapter 4
00:23:04.000 : :Chapter 5
00:31:11.200 : :Chapter 6
00:42:56.000 : :Chapter 7
00:52:06.280 : :Chapter 8
00:57:11.200 : :Chapter 9
01:04:42.080 : :Chapter 10
01:13:53.720 : :Chapter 11
01:22:18.320 : :Chapter 12
01:29:20.000 : :Chapter 13
01:39:11.040 : :Chapter 14







Download: cornfile
http://cornfile.com/z15gp5v4nicf
Download: mekafile
http://www.mekafile.com/dl.php?f=Lxd90cbSwaOH