The Highwaymen



Rating: 7/10 Year: 2019 Genres: Crime / Drama / Mystery / Thriller Runtime: 132 min Language: English Director: John Lee Hancock Writers: John Fusco Cast: Kevin Costner / Woody Harrelson / Kathy Batesโ€ฆ Plot:

The outlaws made headlines. The lawmen made history. From director John Lee Hancock (The Blind Side), THE HIGHWAYMEN follows the untold story of the legendary detectives who brought down Bonnie and Clyde. When the full force of the FBI and the latest forensic technology aren't enough to capture the nation's most notorious criminals, two former Texas Rangers (Kevin Costner and Woody Harrelson) must rely on their gut instincts and old school skills to get the job done. Written by Netflix

เรื่องย่อ เรนนี่ เครย์ ที่ต้องการติดตามหาคนที่ฆ่าภรรยาของเขา เวลาล่วงเลยมา 5 ปี การไล่ตามติดตัวฆาตกรเลือดเย็นนั้นไม่ใช่เรื่องง่าย เพราะมันคือ เจมส์ ฟาร์โก้ ซึ่งร่างกายของเขาประกอบด้วยอวัยวะเทียมทั้งสิ้น เขาใช้เครื่องจักรสังหารคือระเอลโดราโด้รุ่น 1972 ในการล่าเหยื่อบนถนนไฮเวย์ และเขาก็มาพบกับ มอลลี่ พูเล่ หญิงสาวที่เป็นเหยื่อรายใหม่ของเขา แต่สำหรับ เรนนี่ แล้ว มอลลี่ คือเหยื่อในการจับตัวฟาร์โก้
Format : MPEG-4
Format profile : Base Media / Version 2
Codec ID : mp42 (isom/iso2/avc1/mp41)
File size : 16.4 GiB
Duration : 2 h 11 min
Overall bit rate mode : Variable
Overall bit rate : 17.9 Mb/s
Encoded date : UTC 2019-04-07 17:07:53
Tagged date : UTC 2019-04-07 17:07:53
Writing application : HandBrake 1.1.2 2018090500

Video
ID : 1
Format : AVC
Format/Info : Advanced Video Codec
Format profile : [email protected]
Format settings : CABAC / 1 Ref Frames
Format settings, CABAC : Yes
Format settings, ReFrames : 1 frame
Codec ID : avc1
Codec ID/Info : Advanced Video Coding
Duration : 2 h 11 min
Bit rate : 17.0 Mb/s
Width : 3 840 pixels
Height : 1 600 pixels
Display aspect ratio : 2.40:1
Frame rate mode : Constant
Frame rate : 24.000 FPS
Color space : YUV
Chroma subsampling : 4:2:0
Bit depth : 8 bits
Scan type : Progressive
Bits/(Pixel*Frame) : 0.115
Stream size : 15.4 GiB (94%)
Writing library : x264 core 155 r2901 7d0ff22
Encoding settings : cabac=1 / ref=1 / deblock=1:1:1 / analyse=0x3:0x113 / me=hex / subme=7 / psy=1 / psy_rd=0.40:0.00 / mixed_ref=0 / me_range=16 / chroma_me=1 / trellis=1 / 8x8dct=1 / cqm=0 / deadzone=21,11 / fast_pskip=1 / chroma_qp_offset=-2 / threads=12 / lookahead_threads=2 / sliced_threads=0 / nr=0 / decimate=1 / interlaced=0 / bluray_compat=0 / constrained_intra=0 / bframes=0 / weightp=2 / keyint=240 / keyint_min=24 / scenecut=40 / intra_refresh=0 / rc_lookahead=40 / rc=abr / mbtree=1 / bitrate=17000 / ratetol=1.0 / qcomp=0.60 / qpmin=0 / qpmax=69 / qpstep=4 / vbv_maxrate=62500 / vbv_bufsize=78125 / nal_hrd=none / filler=0 / ip_ratio=1.40 / aq=1:0.60
Encoded date : UTC 2019-04-07 17:07:53
Tagged date : UTC 2019-04-07 17:07:53
Color range : Limited
Color primaries : BT.709
Transfer characteristics : BT.709
Matrix coefficients : BT.709
Codec configuration box : avcC

Audio 1
ID : 2
Format : AAC LC
Format/Info : Advanced Audio Codec Low Complexity
Codec ID : mp4a-40-2
Duration : 2 h 11 min
Bit rate mode : Variable
Bit rate : 446 kb/s
Channel(s) : 6 channels
Channel layout : C L R Ls Rs LFE
Sampling rate : 48.0 kHz
Frame rate : 46.875 FPS (1024 SPF)
Compression mode : Lossy
Stream size : 421 MiB (3%)
Title : Surround / Surround
Language : English
Default : Yes
Alternate group : 1
Encoded date : UTC 2019-04-07 17:07:53
Tagged date : UTC 2019-04-07 17:07:53
Fallback From : 3

Audio 2
ID : 3
Format : AC-3
Format/Info : Audio Coding 3
Commercial name : Dolby Digital
Codec ID : ac-3
Duration : 2 h 11 min
Bit rate mode : Constant
Bit rate : 640 kb/s
Channel(s) : 6 channels
Channel layout : L R C LFE Ls Rs
Sampling rate : 48.0 kHz
Frame rate : 31.250 FPS (1536 SPF)
Bit depth : 16 bits
Compression mode : Lossy
Stream size : 603 MiB (4%)
Title : Surround / Surround
Language : English
Service kind : Complete Main
Default : Inherited From: 2
Alternate group : 1
Encoded date : UTC 2019-04-07 17:07:53
Tagged date : UTC 2019-04-07 17:07:53
Fallback To : 2

Text 1
ID : 4
Format : VobSub
Codec ID : mp4s-E0
Codec ID/Info : The same subtitle format used on DVDs
Duration : 2 h 7 min
Bit rate mode : Variable
Bit rate : 8 680 b/s
Stream size : 7.89 MiB (0%)
Language : Thai
Default : Yes
Forced : No
Alternate group : 3
Encoded date : UTC 2019-04-07 17:07:53
Tagged date : UTC 2019-04-07 17:07:53

Text 2
ID : 5
Format : VobSub
Codec ID : mp4s-E0
Codec ID/Info : The same subtitle format used on DVDs
Duration : 2 h 2 min
Bit rate mode : Variable
Bit rate : 8 923 b/s
Stream size : 7.84 MiB (0%)
Language : English
Default : No
Forced : No
Alternate group : 3
Encoded date : UTC 2019-04-07 17:07:53
Tagged date : UTC 2019-04-07 17:07:53




Download: cornfile
http://cornfile.com/v0fqh6nt96ml
Download: mekafile
http://www.mekafile.com/dl.php?f=Qpc18abSAoqP