+ Reply to Thread
Results 1 to 3 of 3
  1. #1
    Administrators Duckload.us's Avatar
    Join Date
    Dec 2010
    Posts
    101,830
    Thanks
    9
    Thanked 103,819 Times in 49,470 Posts

    Question [ฝรั่ง]-[* ใหม่!! พากย์ไทย *] The 15:17 to Paris (2018) : หยุดด่วนนรก [พากย์ไทย มาสเตอร์ + เสียงอังกฤษ DTS] [บรรยายไทย + อังกฤษ] [ซับไทย From Blu-Ray MASTER +ซับ PGS คมชัด]-Encode.DTS.1080p. [Modified]-[พากย์ไทย บรรยายไทย]




    จากคลินท์ อีสต์วูด สู่ “The 15:17 to Paris” จากเรื่องจริงของชายผู้กระทำการอย่างกล้าหาญสามคน จึงทำให้พวกเขากลายเป็นฮีโร่ระหว่างการขับรถบนถนนสาย หลัก
    ในบ่ายแก่ๆของวันที่ 21 สิงหาคม ปี 2015 โลกทั้งใบต้องตะลึงเมื่อสำนักข่าวรายงานถึงการขัดขวา งการบุกเข้าจู่โจมของผู้ก่อการร้ายบนตาลิส รถไฟความเร็วสูงระหว่างประเทศ
    หมายเลข 9346 ที่มุ่งหน้าไปยังปารีส ความพยายามในการขัดขวางเหตุร้ายนั้นเกิดขึ้นโดยชายวั ยรุ่นชาวอเมริกันผู้กล้าหาญสามคนที่อยู่ระหว่างการเด ินทางท่องเที่ยวรอบยุโรป
    .
    .
    .
    ภาพยนตร์เรื่องนี้จะตามติดวิถีชีวิตความเป็นอยู่ของท ั้งสามคน ตั้งแต่เรื่องราวในวัยเด็ก ผ่านฟุตเทจวีดีโอ ไปจนถึงเรื่องราวที่นำไปสู่การโจมตีในครั้งนั้น ตลอดระยะเวลาอันแสนเจ็บปวดนั้น
    ความเป็นเพื่อนของพวกเขาไม่เคยจืดจางลง นั่นคืออาวุธที่ยิ่งใหญ่ที่สุด ทำทำให้พวกเขาช่วยผู้โดยสารกว่า 500 ชีวิตได้สำเร็จ ฮีโร่ทั้งสามนั้นประกอบไปด้วย แอนโธนี่ แซดเลอร์, อเล็ค สกาลาตอส
    นายทหารประจำหน่วยรบโอเรกอน และ สเปนเซอร์ สโตน จ่าอากาศตรีประจำกองทัพอากาศสหรัฐอเมริกา ซึ่งทั้งสามเล่นเป็นตัวเองในภาพยนตร์
    นักแสดงรับเชิญประกอบไปด้วย เจนนา ฟิสเชอร์, จูดี้ เกรียร์, เรย์ คอร์ราซานี่, พีเจ ไบรอัน, โทนี่ ฮาล และ โธมัส เลนนอน โดย พอล มิเกล วิลเลียม จะมารับบทเป็น แอนโธนี่ ในวัยเด็ก,
    ไบรซ์ เกฮ์ซาร์ รับบทเป็นอเล็คในวัยเด็ก และวิลเลียม เจนนิ่งส์ รับบทสเปนเซอร์ในวัยเด็ก คลินท์ อีสต์วูด กำกับ เขียนบทโดย โดโรธี ไบลส์คัล
    จากหนังสือโดยแอนโธนี่ แซดเลอร์, อเล็ค สคาลาตอส, สเปนเซอร์ สโตน และ เจฟฟรี่ย์ อี. สเติร์น คลินท์ยังเป็นผู้อำนวยการสร้างภาพยนตร์ คู่กับทิม มัวร์, คริสติน่า ริเวียร่า
    และ เจสสิก้า ไมเออร์ ดูแลภาพรวมโดย บรูซ เบอร์แมน!!!

    ormat : Matroska
    Format version : Version 4
    File size : 3.96 GiB
    Duration : 1 h 33 min
    Overall bit rate : 6 035 kb/s
    Movie name : {MINI Super-HQ}_The.15.17.To.Paris.2018.1080p.BrRip.DTS.x264_N [email protected]
    Encoded date : UTC 2019-04-10 09:57:17
    Writing application : mkvmerge v29.0.0 ('Like It Or Not') 64-bit
    Writing library : libebml v1.3.6 + libmatroska v1.4.9

    Video
    ID : 1
    Format : AVC
    Format/Info : Advanced Video Codec
    Format profile : [email protected]
    Format settings : CABAC / 4 Ref Frames
    Format settings, CABAC : Yes
    Format settings, RefFrames : 4 frames
    Codec ID : V_MPEG4/ISO/AVC
    Duration : 1 h 33 min
    Bit rate : 5 005 kb/s
    Width : 1 920 pixels
    Height : 804 pixels
    Display aspect ratio : 2.40:1
    Frame rate mode : Constant
    Frame rate : 23.976 FPS
    Color space : YUV
    Chroma subsampling : 4:2:0
    Bit depth : 8 bits
    Scan type : Progressive
    Bits/(Pixel*Frame) : 0.135
    Stream size : 3.28 GiB (83%)
    Title : {MINI Super-HQ}_The.15.17.To.Paris.2018.1080p.BrRip.DTS.x264_N [email protected]
    Writing library : x264 core 130 r2273 b3065e6
    Encoding settings : cabac=1 / ref=3 / deblock=1:0:0 / analyse=0x3:0x113 / me=umh / subme=11 / psy=1 / psy_rd=1.00:0.00 / mixed_ref=1 / me_range=48 / chroma_me=1 / trellis=2 / 8x8dct=1 / cqm=0 / deadzone=21,11 / fast_pskip=1 / chroma_qp_offset=-2 / threads=22 / lookahead_threads=1 / sliced_threads=0 / nr=0 / decimate=1 / interlaced=0 / bluray_compat=0 / constrained_intra=0 / bframes=3 / b_pyramid=2 / b_adapt=1 / b_bias=0 / direct=1 / weightb=1 / open_gop=0 / weightp=2 / keyint=240 / keyint_min=24 / scenecut=40 / intra_refresh=0 / rc_lookahead=40 / rc=2pass / mbtree=1 / bitrate=5005 / ratetol=1.0 / qcomp=0.60 / qpmin=0 / qpmax=69 / qpstep=4 / cplxblur=20.0 / qblur=0.5 / ip_ratio=1.40 / aq=1:1.00
    Language : English
    Default : Yes
    Forced : No
    Color range : Limited
    Color primaries : BT.709
    Transfer characteristics : BT.709
    Matrix coefficients : BT.709

    Audio 1
    ID : 2
    Format : AAC LC
    Format/Info : Advanced Audio Codec Low Complexity
    Codec ID : A_AAC-2
    Duration : 1 h 33 min
    Bit rate : 192 kb/s
    Channel(s) : 2 channels
    Channel layout : L R
    Sampling rate : 48.0 kHz
    Frame rate : 46.875 FPS (1024 SPF)
    Compression mode : Lossy
    Stream size : 129 MiB (3%)
    Language : Thai
    Default : Yes
    Forced : No

    Audio 2
    ID : 3
    Format : DTS
    Format/Info : Digital Theater Systems
    Codec ID : A_DTS
    Duration : 1 h 33 min
    Bit rate mode : Constant
    Bit rate : 755 kb/s
    Channel(s) : 6 channels
    Channel layout : C L R Ls Rs LFE
    Sampling rate : 48.0 kHz
    Frame rate : 93.750 FPS (512 SPF)
    Bit depth : 24 bits
    Compression mode : Lossy
    Stream size : 507 MiB (13%)
    Title : English DTS
    Language : English
    Default : No
    Forced : No

    Text 1
    ID : 4
    Format : VobSub
    Muxing mode : zlib
    Codec ID : S_VOBSUB
    Codec ID/Info : Picture based subtitle format used on DVDs
    Duration : 19 s 975 ms
    Bit rate : 9 242 b/s
    Count of elements : 3
    Stream size : 22.5 KiB (0%)
    Language : Thai
    Default : Yes
    Forced : Yes

    Text 2
    ID : 5
    Format : VobSub
    Muxing mode : zlib
    Codec ID : S_VOBSUB
    Codec ID/Info : Picture based subtitle format used on DVDs
    Duration : 1 h 31 min
    Bit rate : 3 353 b/s
    Count of elements : 1484
    Stream size : 2.20 MiB (0%)
    Title : Thai 480p
    Language : Thai
    Default : No
    Forced : No

    Text 3
    ID : 6
    Format : VobSub
    Muxing mode : zlib
    Codec ID : S_VOBSUB
    Codec ID/Info : Picture based subtitle format used on DVDs
    Duration : 1 h 31 min
    Bit rate : 6 416 b/s
    Count of elements : 1484
    Stream size : 4.21 MiB (0%)
    Title : Thai 720p
    Language : Thai
    Default : No
    Forced : No

    Text 4
    ID : 7
    Format : VobSub
    Muxing mode : zlib
    Codec ID : S_VOBSUB
    Codec ID/Info : Picture based subtitle format used on DVDs
    Duration : 1 h 31 min
    Bit rate : 10.8 kb/s
    Count of elements : 1484
    Stream size : 7.11 MiB (0%)
    Title : Thai 1080p
    Language : Thai
    Default : No
    Forced : No

    Text 5
    ID : 8
    Format : VobSub
    Muxing mode : zlib
    Codec ID : S_VOBSUB
    Codec ID/Info : Picture based subtitle format used on DVDs
    Duration : 1 h 31 min
    Bit rate : 10.8 kb/s
    Count of elements : 1484
    Stream size : 7.11 MiB (0%)
    Title : Thai 1080p Yellow
    Language : Thai
    Default : No
    Forced : No

    Text 6
    ID : 9
    Format : VobSub
    Muxing mode : zlib
    Codec ID : S_VOBSUB
    Codec ID/Info : Picture based subtitle format used on DVDs
    Duration : 1 h 31 min
    Bit rate : 10.8 kb/s
    Count of elements : 1484
    Stream size : 7.11 MiB (0%)
    Title : Thai 1080p Out
    Language : Thai
    Default : No
    Forced : No

    Text 7
    ID : 10
    Format : VobSub
    Muxing mode : zlib
    Codec ID : S_VOBSUB
    Codec ID/Info : Picture based subtitle format used on DVDs
    Duration : 1 h 31 min
    Bit rate : 15.7 kb/s
    Count of elements : 1484
    Stream size : 10.3 MiB (0%)
    Title : Thai 1080p BIG
    Language : Thai
    Default : No
    Forced : No

    Text 8
    ID : 11
    Format : PGS
    Muxing mode : zlib
    Codec ID : S_HDMV/PGS
    Codec ID/Info : Picture based subtitle format used on BDs/HD-DVDs
    Duration : 1 h 31 min
    Bit rate : 43.3 kb/s
    Count of elements : 2972
    Stream size : 28.4 MiB (1%)
    Title : Thai PGS BluRay Master
    Language : Thai
    Default : No
    Forced : No

    Text 9
    ID : 12
    Format : PGS
    Muxing mode : zlib
    Codec ID : S_HDMV/PGS
    Codec ID/Info : Picture based subtitle format used on BDs/HD-DVDs
    Duration : 1 h 31 min
    Bit rate : 43.2 kb/s
    Count of elements : 2968
    Stream size : 28.4 MiB (1%)
    Title : Thai PGS Out
    Language : Thai
    Default : No
    Forced : No

    Text 10
    ID : 13
    Format : PGS
    Muxing mode : zlib
    Codec ID : S_HDMV/PGS
    Codec ID/Info : Picture based subtitle format used on BDs/HD-DVDs
    Duration : 1 h 33 min
    Bit rate : 49.6 kb/s
    Count of elements : 3395
    Stream size : 33.2 MiB (1%)
    Title : English
    Language : English
    Default : No
    Forced : No

    Menu
    00:00:00.000 : en:Chapter 1
    00:09:51.424 : en:Chapter 2
    00:19:23.203 : en:Chapter 3
    00:30:49.264 : en:Chapter 4
    00:44:00.304 : en:Chapter 5
    00:52:51.167 : en:Chapter 6
    01:04:21.899 : en:Chapter 7
    01:11:52.766 : en:Chapter 8
    01:21:46.151 : en:Chapter 9
    01:27:00.340 : en:Chapter 10













    Credit : ไฟล์หนังต้นฉบับจากคุณ NongZEZA~ โมเสียงไทยเข้าไป


    Download: cornfile
    http://cornfile.com/2kjxi04vrovw
    Download: mekafile
    http://www.mekafile.com/dl.php?f=nla00abSE2NI

  2. The Following 3 Users Say Thank You to Duckload.us For This Useful Post:

    sawara (04-19-2019), smakha (04-17-2019), Wesker_TOT (04-13-2019)

  3. #2
    Senior Member
    Join Date
    Dec 2013
    Posts
    1,493
    Thanks
    3,446
    Thanked 0 Times in 0 Posts
    ขอบคุณครับ...

  4. #3
    Senior Member
    Join Date
    Dec 2013
    Posts
    203
    Thanks
    133
    Thanked 0 Times in 0 Posts
    ขอบคุณครับ

+ Reply to Thread

Thread Information

Users Browsing this Thread

There are currently 1 users browsing this thread. (0 members and 1 guests)

     

Posting Permissions

  • You may not post new threads
  • You may not post replies
  • You may not post attachments
  • You may not edit your posts