+ Reply to Thread
Results 1 to 1 of 1
  1. #1
    Senior Member
    Join Date
    Feb 2018
    Posts
    970
    Thanks
    0
    Thanked 358 Times in 251 Posts

    Angry [ใหม่! BluRay Master] [BDRM/FULL-HD / Mini-HD] Escape Room (2019) : กักห้อง เกมโหด !! [เสียง:ไทย 5.1 มาสเตอร์,อังกฤษ DTS-HD MA 5.1 - บรรยายไทย,อังกฤษ] [เสียง+ซับไทย From BluRay Master+ซับ PGS]









    ★★ไฟล์คุณภาพคมชัด!!! เน้นบิตเรท★★

    ★★เสียงไทย+ซับไทย From BluRay Master★★


    SSpMiniHD

    SSP.Escape.Room.2019.1080p.BRRip.x264.DTS-EntHD_ProMaster.mkv
    Format : Matroska
    Format version : Version 4 / Version 2
    File size : 3.30 GiB
    Duration : 1 h 39 min
    Overall bit rate : 4 740 kb/s
    Movie name : Escape.Room.2019.1080p.BRRip.x264.DTS-EntHD_ProMaster
    Encoded date : UTC 2019-04-15 02:32:44
    Writing application : mkvmerge v28.2.0 ('The Awakening') 64-bit
    Writing library : libebml v1.3.6 + libmatroska v1.4.9
    Cover : Yes
    Attachments : cover.jpg

    Video
    ID : 1
    Format : AVC
    Format/Info : Advanced Video Codec
    Format profile : [email protected]
    Format settings, CABAC : Yes
    Format settings, RefFrames : 4 frames
    Codec ID : V_MPEG4/ISO/AVC
    Duration : 1 h 39 min
    Bit rate : 2 500 kb/s
    Width : 1 920 pixels
    Height : 808 pixels

    Display aspect ratio : 2.40:1
    Frame rate mode : Constant
    Frame rate : 23.976 (23976/1000) FPS
    Color space : YUV
    Chroma subsampling : 4:2:0
    Bit depth : 8 bits
    Scan type : Progressive
    Bits/(Pixel*Frame) : 0.067
    Stream size : 1.74 GiB (53%)
    Title : Modified By [email protected]
    Writing library : x264 core 152 r2851M ba24899
    Encoding settings : cabac=1 / ref=4 / deblock=1:-1:-1 / analyse=0x3:0x113 / me=umh / subme=9 / psy=1 / psy_rd=1.00:0.15 / mixed_ref=1 / me_range=24 / chroma_me=1 / trellis=2 / 8x8dct=1 / cqm=0 / deadzone=21,11 / fast_pskip=1 / chroma_qp_offset=-3 / threads=32 / lookahead_threads=4 / sliced_threads=0 / nr=0 / decimate=1 / interlaced=0 / bluray_compat=0 / constrained_intra=0 / bframes=3 / b_pyramid=2 / b_adapt=2 / b_bias=0 / direct=3 / weightb=1 / open_gop=0 / weightp=2 / keyint=250 / keyint_min=25 / scenecut=40 / intra_refresh=0 / rc_lookahead=50 / rc=2pass / mbtree=1 / bitrate=2500 / ratetol=1.0 / qcomp=0.60 / qpmin=0 / qpmax=69 / qpstep=4 / cplxblur=20.0 / qblur=0.5 / vbv_maxrate=31250 / vbv_bufsize=31250 / nal_hrd=none / filler=0 / ip_ratio=1.40 / aq=3:1.00
    Language : English
    Default : Yes
    Forced : No

    Audio #1
    ID : 2
    Format : AC-3
    Format/Info : Audio Coding 3
    Format settings, Endianness : Big
    Codec ID : A_AC3
    Duration : 1 h 39 min
    Bit rate mode : Constant
    Bit rate : 640 kb/s
    Channel(s) : 6 channels

    Channel positions : Front: L C R, Side: L R, LFE
    Sampling rate : 48.0 kHz
    Frame rate : 31.250 FPS (1536 SPF)
    Bit depth : 16 bits
    Compression mode : Lossy
    Delay relative to video : -43 ms
    Stream size : 456 MiB (14%)
    Title : Thai AC3 5.1 BluRay Master-EntHD_ProMaster
    Language : Thai

    Service kind : Complete Main
    Default : Yes
    Forced : Yes

    Audio #2
    ID : 3
    Format : DTS
    Format/Info : Digital Theater Systems
    Mode : 16
    Format settings, Endianness : Big
    Codec ID : A_DTS
    Duration : 1 h 39 min
    Bit rate mode : Constant
    Bit rate : 1 509 kb/s
    Channel(s) : 6 channels

    Channel positions : Front: L C R, Side: L R, LFE
    Sampling rate : 48.0 kHz
    Frame rate : 93.750 FPS (512 SPF)
    Bit depth : 16 bits
    Compression mode : Lossy
    Delay relative to video : -43 ms
    Stream size : 1.05 GiB (32%)
    Title : Eng DTS 5.1-EntHD_ProMaster
    Language : English

    Default : No
    Forced : No

    Text #1
    ID : 4
    Format : UTF-8
    Codec ID : S_TEXT/UTF8
    Codec ID/Info : UTF-8 Plain Text
    Duration : 1 h 33 min
    Bit rate : 70 b/s
    Count of elements : 1359
    Stream size : 48.1 KiB (0%)
    Title : English-SRT-EntHD_ProMaster
    Language : English
    Default : No
    Forced : No

    Text #2
    ID : 5
    Format : PGS
    Muxing mode : zlib
    Codec ID : S_HDMV/PGS
    Codec ID/Info : Picture based subtitle format used on BDs/HD-DVDs
    Duration : 1 h 37 min
    Bit rate : 45.6 kb/s
    Count of elements : 3013
    Stream size : 31.6 MiB (1%)
    Title : English-SDH-PGS-EntHD_ProMaster
    Language : English
    Default : No
    Forced : No

    Text #3
    ID : 6
    Format : PGS
    Muxing mode : zlib
    Codec ID : S_HDMV/PGS
    Codec ID/Info : Picture based subtitle format used on BDs/HD-DVDs
    Duration : 1 h 33 min
    Bit rate : 41.8 kb/s
    Count of elements : 2636
    Stream size : 28.0 MiB (1%)
    Title : English-PGS-EntHD_ProMaster
    Language : English
    Default : No
    Forced : No

    Text #4
    ID : 7
    Format : PGS
    Muxing mode : zlib
    Codec ID : S_HDMV/PGS
    Codec ID/Info : Picture based subtitle format used on BDs/HD-DVDs
    Duration : 1 h 38 min
    Bit rate : 30.8 kb/s
    Count of elements : 2712
    Stream size : 21.6 MiB (1%)
    Title : Thai-PGS BluRay Master-EntHD_ProMaster
    Language : Thai

    Default : Yes
    Forced : Yes

    Text #5
    ID : 8
    Format : PGS
    Muxing mode : zlib
    Codec ID : S_HDMV/PGS
    Codec ID/Info : Picture based subtitle format used on BDs/HD-DVDs
    Duration : 1 h 38 min
    Bit rate : 30.7 kb/s
    Count of elements : 2708
    Stream size : 21.6 MiB (1%)
    Title : Thai-PGS BluRay Master LOW-EntHD_ProMaster
    Language : Thai

    Default : No
    Forced : No

    Text #6
    ID : 9
    Format : VobSub
    Muxing mode : zlib
    Codec ID : S_VOBSUB
    Codec ID/Info : Picture based subtitle format used on DVDs
    Duration : 1 h 38 min
    Bit rate : 7 950 b/s
    Count of elements : 1354
    Stream size : 5.60 MiB (0%)
    Title : Thai 1080p-EntHD_ProMaster
    Language : Thai

    Default : No
    Forced : No

    Text #7
    ID : 10
    Format : VobSub
    Muxing mode : zlib
    Codec ID : S_VOBSUB
    Codec ID/Info : Picture based subtitle format used on DVDs
    Duration : 1 h 38 min
    Bit rate : 7 950 b/s
    Count of elements : 1354
    Stream size : 5.60 MiB (0%)
    Title : Thai 1080p LOW-EntHD_ProMaster
    Language : Thai

    Default : No
    Forced : No

    Text #8
    ID : 11
    Format : VobSub
    Muxing mode : zlib
    Codec ID : S_VOBSUB
    Codec ID/Info : Picture based subtitle format used on DVDs
    Duration : 1 h 38 min
    Bit rate : 2 427 b/s
    Count of elements : 1354
    Stream size : 1.71 MiB (0%)
    Title : Thai 480p-EntHD_ProMaster
    Language : Thai

    Default : No
    Forced : No

    Text #9
    ID : 12
    Format : VobSub
    Muxing mode : zlib
    Codec ID : S_VOBSUB
    Codec ID/Info : Picture based subtitle format used on DVDs
    Duration : 1 h 38 min
    Bit rate : 2 427 b/s
    Count of elements : 1354
    Stream size : 1.71 MiB (0%)
    Title : Thai 480p LOW-EntHD_ProMaster
    Language : Thai

    Default : No
    Forced : No

    ★ ☆ ✮Modified By EntHD_ProMaster@enthdmovieclub✮ ☆ ★






    SpMiniHD

    Sp.Mini.Escape.Room.2019.1080p.BRRip.x264.DTS-EntHD_ProMaster.mkv
    Format : Matroska
    Format version : Version 4 / Version 2
    File size : 4.31 GiB
    Duration : 1 h 39 min
    Overall bit rate : 6 188 kb/s
    Movie name : Mini.Escape.Room.2019.1080p.BRRip.x264.DTS-EntHD_ProMaster
    Encoded date : UTC 2019-04-15 05:09:13
    Writing application : mkvmerge v15.0.0 ('Duel with the Devil') 64-bit
    Writing library : libebml v1.3.5 + libmatroska v1.4.5
    Cover : Yes
    Attachments : cover.jpg

    Video
    ID : 1
    Format : AVC
    Format/Info : Advanced Video Codec
    Format profile : [email protected]
    Format settings : CABAC / 4 Ref Frames
    Format settings, CABAC : Yes
    Format settings, ReFrames : 4 frames
    Codec ID : V_MPEG4/ISO/AVC
    Duration : 1 h 39 min
    Bit rate : 4 000 kb/s
    Width : 1 920 pixels
    Height : 804 pixels

    Display aspect ratio : 2.40:1
    Frame rate mode : Constant
    Frame rate : 23.976 (24000/1001) FPS
    Color space : YUV
    Chroma subsampling : 4:2:0
    Bit depth : 8 bits
    Scan type : Progressive
    Bits/(Pixel*Frame) : 0.108
    Stream size : 2.75 GiB (64%)
    Title : Modified By [email protected]
    Writing library : x264 core 148
    Encoding settings : cabac=1 / ref=1 / deblock=1:0:0 / analyse=0x3:0x113 / me=hex / subme=2 / psy=1 / psy_rd=1.00:0.00 / mixed_ref=0 / me_range=16 / chroma_me=1 / trellis=0 / 8x8dct=1 / cqm=0 / deadzone=21,11 / fast_pskip=1 / chroma_qp_offset=0 / threads=6 / lookahead_threads=2 / sliced_threads=0 / nr=0 / decimate=1 / interlaced=0 / bluray_compat=0 / constrained_intra=0 / bframes=3 / b_pyramid=2 / b_adapt=1 / b_bias=0 / direct=1 / weightb=1 / open_gop=0 / weightp=1 / keyint=240 / keyint_min=24 / scenecut=40 / intra_refresh=0 / rc_lookahead=10 / rc=abr / mbtree=1 / bitrate=4000 / ratetol=1.0 / qcomp=0.60 / qpmin=0 / qpmax=69 / qpstep=4 / vbv_maxrate=62500 / vbv_bufsize=78125 / nal_hrd=none / filler=0 / ip_ratio=1.40 / aq=1:1.00
    Language : English
    Default : Yes
    Forced : No
    Color range : Limited
    Color primaries : BT.709
    Transfer characteristics : BT.709
    Matrix coefficients : BT.709

    Audio #1
    ID : 2
    Format : AC-3
    Format/Info : Audio Coding 3
    Codec ID : A_AC3
    Duration : 1 h 39 min
    Bit rate mode : Constant
    Bit rate : 640 kb/s
    Channel(s) : 6 channels

    Channel positions : Front: L C R, Side: L R, LFE
    Sampling rate : 48.0 kHz
    Frame rate : 31.250 FPS (1536 SPF)
    Bit depth : 16 bits
    Compression mode : Lossy
    Delay relative to video : -5 ms
    Stream size : 456 MiB (10%)
    Title : Thai AC3 5.1 BluRay Master-EntHD_ProMaster
    Language : Thai

    Service kind : Complete Main
    Default : Yes
    Forced : Yes

    Audio #2
    ID : 3
    Format : DTS
    Format/Info : Digital Theater Systems
    Codec ID : A_DTS
    Duration : 1 h 39 min
    Bit rate mode : Constant
    Bit rate : 1 509 kb/s
    Channel(s) : 6 channels

    Channel positions : Front: L C R, Side: L R, LFE
    Sampling rate : 48.0 kHz
    Frame rate : 93.750 FPS (512 SPF)
    Bit depth : 16 bits
    Compression mode : Lossy
    Delay relative to video : -5 ms
    Stream size : 1.05 GiB (24%)
    Title : Eng DTS 5.1-EntHD_ProMaster
    Language : English

    Default : No
    Forced : No

    Text #1
    ID : 4
    Format : UTF-8
    Codec ID : S_TEXT/UTF8
    Codec ID/Info : UTF-8 Plain Text
    Duration : 1 h 33 min
    Bit rate : 70 b/s
    Count of elements : 1359
    Stream size : 48.1 KiB (0%)
    Title : English-SRT-EntHD_ProMaster
    Language : English
    Default : No
    Forced : No

    Text #2
    ID : 5
    Format : PGS
    Muxing mode : zlib
    Codec ID : S_HDMV/PGS
    Codec ID/Info : Picture based subtitle format used on BDs/HD-DVDs
    Duration : 1 h 37 min
    Bit rate : 45.6 kb/s
    Count of elements : 3013
    Stream size : 31.6 MiB (1%)
    Title : English-SDH-PGS-EntHD_ProMaster
    Language : English
    Default : No
    Forced : No

    Text #3
    ID : 6
    Format : PGS
    Muxing mode : zlib
    Codec ID : S_HDMV/PGS
    Codec ID/Info : Picture based subtitle format used on BDs/HD-DVDs
    Duration : 1 h 33 min
    Bit rate : 41.8 kb/s
    Count of elements : 2636
    Stream size : 28.0 MiB (1%)
    Title : English-PGS-EntHD_ProMaster
    Language : English
    Default : No
    Forced : No

    Text #4
    ID : 7
    Format : PGS
    Muxing mode : zlib
    Codec ID : S_HDMV/PGS
    Codec ID/Info : Picture based subtitle format used on BDs/HD-DVDs
    Duration : 1 h 38 min
    Bit rate : 30.8 kb/s
    Count of elements : 2712
    Stream size : 21.6 MiB (0%)
    Title : Thai-PGS BluRay Master-EntHD_ProMaster
    Language : Thai

    Default : Yes
    Forced : Yes

    Text #5
    ID : 8
    Format : PGS
    Muxing mode : zlib
    Codec ID : S_HDMV/PGS
    Codec ID/Info : Picture based subtitle format used on BDs/HD-DVDs
    Duration : 1 h 38 min
    Bit rate : 30.7 kb/s
    Count of elements : 2708
    Stream size : 21.6 MiB (0%)
    Title : Thai-PGS BluRay Master LOW-EntHD_ProMaster
    Language : Thai

    Default : No
    Forced : No

    Text #6
    ID : 9
    Format : VobSub
    Muxing mode : zlib
    Codec ID : S_VOBSUB
    Codec ID/Info : Picture based subtitle format used on DVDs
    Duration : 1 h 38 min
    Bit rate : 7 950 b/s
    Count of elements : 1354
    Stream size : 5.60 MiB (0%)
    Title : Thai 1080p-EntHD_ProMaster
    Language : Thai

    Default : No
    Forced : No

    Text #7
    ID : 10
    Format : VobSub
    Muxing mode : zlib
    Codec ID : S_VOBSUB
    Codec ID/Info : Picture based subtitle format used on DVDs
    Duration : 1 h 38 min
    Bit rate : 7 950 b/s
    Count of elements : 1354
    Stream size : 5.60 MiB (0%)
    Title : Thai 1080p LOW-EntHD_ProMaster
    Language : Thai

    Default : No
    Forced : No

    Text #8
    ID : 11
    Format : VobSub
    Muxing mode : zlib
    Codec ID : S_VOBSUB
    Codec ID/Info : Picture based subtitle format used on DVDs
    Duration : 1 h 38 min
    Bit rate : 2 427 b/s
    Count of elements : 1354
    Stream size : 1.71 MiB (0%)
    Title : Thai 480p-EntHD_ProMaster
    Language : Thai

    Default : No
    Forced : No

    Text #9
    ID : 12
    Format : VobSub
    Muxing mode : zlib
    Codec ID : S_VOBSUB
    Codec ID/Info : Picture based subtitle format used on DVDs
    Duration : 1 h 38 min
    Bit rate : 2 427 b/s
    Count of elements : 1354
    Stream size : 1.71 MiB (0%)
    Title : Thai 480p LOW-EntHD_ProMaster
    Language : Thai

    Default : No
    Forced : No

    ★ ☆ ✮Modified By EntHD_ProMaster@enthdmovieclub✮ ☆ ★






    MiniHD

    Escape.Room.2019.1080p.BDRip.x264.DTS-EntHD_ProMaster.mkv
    Format : Matroska
    Format version : Version 4 / Version 2
    File size : 5.69 GiB
    Duration : 1 h 39 min
    Overall bit rate : 8 173 kb/s
    Movie name : Escape.Room.2019.1080p.BDRip.x264.DTS-EntHD_ProMaster
    Encoded date : UTC 2019-04-15 05:24:24
    Writing application : mkvmerge v15.0.0 ('Duel with the Devil') 64-bit
    Writing library : libebml v1.3.5 + libmatroska v1.4.5
    Cover : Yes
    Attachments : cover.jpg

    Video
    ID : 1
    Format : AVC
    Format/Info : Advanced Video Codec
    Format profile : [email protected]
    Format settings : CABAC / 4 Ref Frames
    Format settings, CABAC : Yes
    Format settings, ReFrames : 4 frames
    Codec ID : V_MPEG4/ISO/AVC
    Duration : 1 h 39 min
    Bit rate : 6 000 kb/s
    Width : 1 920 pixels
    Height : 1 080 pixels

    Display aspect ratio : 16:9
    Frame rate mode : Constant
    Frame rate : 23.976 (24000/1001) FPS
    Color space : YUV
    Chroma subsampling : 4:2:0
    Bit depth : 8 bits
    Scan type : Progressive
    Bits/(Pixel*Frame) : 0.121
    Stream size : 4.13 GiB (73%)
    Title : Modified By [email protected]
    Writing library : x264 core 148 r2708 86b7198
    Encoding settings : cabac=1 / ref=4 / deblock=1:0:0 / analyse=0x3:0x113 / me=umh / subme=8 / psy=1 / psy_rd=1.00:0.00 / mixed_ref=1 / me_range=16 / chroma_me=1 / trellis=1 / 8x8dct=1 / cqm=0 / deadzone=21,11 / fast_pskip=1 / chroma_qp_offset=-2 / threads=12 / lookahead_threads=2 / sliced_threads=0 / nr=0 / decimate=1 / interlaced=0 / bluray_compat=0 / constrained_intra=0 / bframes=3 / b_pyramid=2 / b_adapt=2 / b_bias=0 / direct=3 / weightb=1 / open_gop=0 / weightp=2 / keyint=240 / keyint_min=24 / scenecut=40 / intra_refresh=0 / rc_lookahead=50 / rc=abr / mbtree=1 / bitrate=6000 / ratetol=1.0 / qcomp=0.60 / qpmin=0 / qpmax=69 / qpstep=4 / vbv_maxrate=62500 / vbv_bufsize=78125 / nal_hrd=none / filler=0 / ip_ratio=1.40 / aq=1:1.00
    Language : English
    Default : Yes
    Forced : No
    Color range : Limited
    Color primaries : BT.709
    Transfer characteristics : BT.709
    Matrix coefficients : BT.709

    Audio #1
    ID : 2
    Format : AC-3
    Format/Info : Audio Coding 3
    Codec ID : A_AC3
    Duration : 1 h 39 min
    Bit rate mode : Constant
    Bit rate : 640 kb/s
    Channel(s) : 6 channels

    Channel positions : Front: L C R, Side: L R, LFE
    Sampling rate : 48.0 kHz
    Frame rate : 31.250 FPS (1536 SPF)
    Bit depth : 16 bits
    Compression mode : Lossy
    Stream size : 456 MiB (8%)
    Title : Thai AC3 5.1 BluRay Master-EntHD_ProMaster
    Language : Thai

    Service kind : Complete Main
    Default : Yes
    Forced : Yes

    Audio #2
    ID : 3
    Format : DTS
    Format/Info : Digital Theater Systems
    Codec ID : A_DTS
    Duration : 1 h 39 min
    Bit rate mode : Constant
    Bit rate : 1 509 kb/s
    Channel(s) : 6 channels

    Channel positions : Front: L C R, Side: L R, LFE
    Sampling rate : 48.0 kHz
    Frame rate : 93.750 FPS (512 SPF)
    Bit depth : 16 bits
    Compression mode : Lossy
    Stream size : 1.05 GiB (18%)
    Title : Eng DTS 5.1-EntHD_ProMaster
    Language : English

    Default : No
    Forced : No

    Text #1
    ID : 4
    Format : UTF-8
    Codec ID : S_TEXT/UTF8
    Codec ID/Info : UTF-8 Plain Text
    Duration : 1 h 33 min
    Bit rate : 70 b/s
    Count of elements : 1359
    Stream size : 48.1 KiB (0%)
    Title : English-SRT-EntHD_ProMaster
    Language : English
    Default : No
    Forced : No

    Text #2
    ID : 5
    Format : PGS
    Muxing mode : zlib
    Codec ID : S_HDMV/PGS
    Codec ID/Info : Picture based subtitle format used on BDs/HD-DVDs
    Duration : 1 h 37 min
    Bit rate : 45.6 kb/s
    Count of elements : 3013
    Stream size : 31.6 MiB (1%)
    Title : English-SDH-PGS-EntHD_ProMaster
    Language : English
    Default : No
    Forced : No

    Text #3
    ID : 6
    Format : PGS
    Muxing mode : zlib
    Codec ID : S_HDMV/PGS
    Codec ID/Info : Picture based subtitle format used on BDs/HD-DVDs
    Duration : 1 h 33 min
    Bit rate : 41.8 kb/s
    Count of elements : 2636
    Stream size : 28.0 MiB (0%)
    Title : English-PGS-EntHD_ProMaster
    Language : English
    Default : No
    Forced : No

    Text #4
    ID : 7
    Format : PGS
    Muxing mode : zlib
    Codec ID : S_HDMV/PGS
    Codec ID/Info : Picture based subtitle format used on BDs/HD-DVDs
    Duration : 1 h 38 min
    Bit rate : 30.8 kb/s
    Count of elements : 2712
    Stream size : 21.6 MiB (0%)
    Title : Thai-PGS BluRay Master-EntHD_ProMaster
    Language : Thai

    Default : Yes
    Forced : Yes

    Text #5
    ID : 8
    Format : PGS
    Muxing mode : zlib
    Codec ID : S_HDMV/PGS
    Codec ID/Info : Picture based subtitle format used on BDs/HD-DVDs
    Duration : 1 h 38 min
    Bit rate : 30.7 kb/s
    Count of elements : 2708
    Stream size : 21.6 MiB (0%)
    Title : Thai-PGS BluRay Master LOW-EntHD_ProMaster
    Language : Thai

    Default : No
    Forced : No

    Text #6
    ID : 9
    Format : VobSub
    Muxing mode : zlib
    Codec ID : S_VOBSUB
    Codec ID/Info : Picture based subtitle format used on DVDs
    Duration : 1 h 38 min
    Bit rate : 7 950 b/s
    Count of elements : 1354
    Stream size : 5.60 MiB (0%)
    Title : Thai 1080p-EntHD_ProMaster
    Language : Thai

    Default : No
    Forced : No

    Text #7
    ID : 10
    Format : VobSub
    Muxing mode : zlib
    Codec ID : S_VOBSUB
    Codec ID/Info : Picture based subtitle format used on DVDs
    Duration : 1 h 38 min
    Bit rate : 7 950 b/s
    Count of elements : 1354
    Stream size : 5.60 MiB (0%)
    Title : Thai 1080p LOW-EntHD_ProMaster
    Language : Thai

    Default : No
    Forced : No

    Text #8
    ID : 11
    Format : VobSub
    Muxing mode : zlib
    Codec ID : S_VOBSUB
    Codec ID/Info : Picture based subtitle format used on DVDs
    Duration : 1 h 38 min
    Bit rate : 2 427 b/s
    Count of elements : 1354
    Stream size : 1.71 MiB (0%)
    Title : Thai 480p-EntHD_ProMaster
    Language : Thai

    Default : No
    Forced : No

    Text #9
    ID : 12
    Format : VobSub
    Muxing mode : zlib
    Codec ID : S_VOBSUB
    Codec ID/Info : Picture based subtitle format used on DVDs
    Duration : 1 h 38 min
    Bit rate : 2 427 b/s
    Count of elements : 1354
    Stream size : 1.71 MiB (0%)
    Title : Thai 480p LOW-EntHD_ProMaster
    Language : Thai

    Default : No
    Forced : No

    ★ ☆ ✮Modified By EntHD_ProMaster@enthdmovieclub✮ ☆ ★






    Full HD เสียง DTS 5.1

    Escape.Room.2019.1080p.BluRay.x264.DTS.5.1-EntHD_ProMaster.mkv
    Format : Matroska
    Format version : Version 4 / Version 2
    File size : 8.16 GiB
    Duration : 1 h 39 min
    Overall bit rate : 11.7 Mb/s
    Movie name : Escape.Room.2019.1080p.BluRay.x264.DTS.5.1-EntHD_ProMaster
    Encoded date : UTC 2019-04-15 06:11:58
    Writing application : mkvmerge v15.0.0 ('Duel with the Devil') 64-bit
    Writing library : libebml v1.3.5 + libmatroska v1.4.5
    Cover : Yes
    Attachments : cover.jpg

    Video
    ID : 1
    Format : AVC
    Format/Info : Advanced Video Codec
    Format profile : [email protected]
    Format settings : CABAC / 5 Ref Frames
    Format settings, CABAC : Yes
    Format settings, ReFrames : 5 frames
    Codec ID : V_MPEG4/ISO/AVC
    Duration : 1 h 39 min
    Bit rate : 9 485 kb/s
    Width : 1 920 pixels
    Height : 808 pixels

    Display aspect ratio : 2.40:1
    Frame rate mode : Constant
    Frame rate : 23.976 (24000/1001) FPS
    Color space : YUV
    Chroma subsampling : 4:2:0
    Bit depth : 8 bits
    Scan type : Progressive
    Bits/(Pixel*Frame) : 0.255
    Stream size : 6.60 GiB (81%)
    Title : Modified By [email protected]
    Writing library : x264 core 157 r2970 5493be8
    Encoding settings : cabac=1 / ref=5 / deblock=1:-3:-3 / analyse=0x3:0x113 / me=umh / subme=8 / psy=1 / psy_rd=1.00:0.00 / mixed_ref=1 / me_range=16 / chroma_me=1 / trellis=1 / 8x8dct=1 / cqm=0 / deadzone=21,11 / fast_pskip=1 / chroma_qp_offset=-2 / threads=25 / lookahead_threads=4 / sliced_threads=0 / nr=0 / decimate=1 / interlaced=0 / bluray_compat=0 / constrained_intra=0 / bframes=3 / b_pyramid=2 / b_adapt=1 / b_bias=0 / direct=3 / weightb=1 / open_gop=0 / weightp=2 / keyint=250 / keyint_min=23 / scenecut=40 / intra_refresh=0 / rc_lookahead=50 / rc=2pass / mbtree=1 / bitrate=9485 / ratetol=1.0 / qcomp=0.60 / qpmin=0 / qpmax=69 / qpstep=4 / cplxblur=20.0 / qblur=0.5 / ip_ratio=1.40 / aq=1:1.00
    Language : English
    Default : Yes
    Forced : No

    Audio #1
    ID : 2
    Format : AC-3
    Format/Info : Audio Coding 3
    Codec ID : A_AC3
    Duration : 1 h 39 min
    Bit rate mode : Constant
    Bit rate : 640 kb/s
    Channel(s) : 6 channels

    Channel positions : Front: L C R, Side: L R, LFE
    Sampling rate : 48.0 kHz
    Frame rate : 31.250 FPS (1536 SPF)
    Bit depth : 16 bits
    Compression mode : Lossy
    Stream size : 456 MiB (5%)
    Title : Thai AC3 5.1 BluRay Master-EntHD_ProMaster
    Language : Thai

    Service kind : Complete Main
    Default : Yes
    Forced : Yes

    Audio #2
    ID : 3
    Format : DTS
    Format/Info : Digital Theater Systems
    Codec ID : A_DTS
    Duration : 1 h 39 min
    Bit rate mode : Constant
    Bit rate : 1 509 kb/s
    Channel(s) : 6 channels

    Channel positions : Front: L C R, Side: L R, LFE
    Sampling rate : 48.0 kHz
    Frame rate : 93.750 FPS (512 SPF)
    Bit depth : 16 bits
    Compression mode : Lossy
    Stream size : 1.05 GiB (13%)
    Title : Eng DTS 5.1-EntHD_ProMaster
    Language : English

    Default : No
    Forced : No

    Text #1
    ID : 4
    Format : UTF-8
    Codec ID : S_TEXT/UTF8
    Codec ID/Info : UTF-8 Plain Text
    Duration : 1 h 33 min
    Bit rate : 70 b/s
    Count of elements : 1359
    Stream size : 48.1 KiB (0%)
    Title : English-SRT-EntHD_ProMaster
    Language : English
    Default : No
    Forced : No

    Text #2
    ID : 5
    Format : PGS
    Muxing mode : zlib
    Codec ID : S_HDMV/PGS
    Codec ID/Info : Picture based subtitle format used on BDs/HD-DVDs
    Duration : 1 h 37 min
    Bit rate : 45.6 kb/s
    Count of elements : 3013
    Stream size : 31.6 MiB (0%)
    Title : English-SDH-PGS-EntHD_ProMaster
    Language : English
    Default : No
    Forced : No

    Text #3
    ID : 6
    Format : PGS
    Muxing mode : zlib
    Codec ID : S_HDMV/PGS
    Codec ID/Info : Picture based subtitle format used on BDs/HD-DVDs
    Duration : 1 h 33 min
    Bit rate : 41.8 kb/s
    Count of elements : 2636
    Stream size : 28.0 MiB (0%)
    Title : English-PGS-EntHD_ProMaster
    Language : English
    Default : No
    Forced : No

    Text #4
    ID : 7
    Format : PGS
    Muxing mode : zlib
    Codec ID : S_HDMV/PGS
    Codec ID/Info : Picture based subtitle format used on BDs/HD-DVDs
    Duration : 1 h 38 min
    Bit rate : 30.8 kb/s
    Count of elements : 2712
    Stream size : 21.6 MiB (0%)
    Title : Thai-PGS BluRay Master-EntHD_ProMaster
    Language : Thai

    Default : No
    Forced : Yes

    Text #5
    ID : 8
    Format : PGS
    Muxing mode : zlib
    Codec ID : S_HDMV/PGS
    Codec ID/Info : Picture based subtitle format used on BDs/HD-DVDs
    Duration : 1 h 38 min
    Bit rate : 30.7 kb/s
    Count of elements : 2708
    Stream size : 21.6 MiB (0%)
    Title : Thai-PGS BluRay Master LOW-EntHD_ProMaster
    Language : Thai

    Default : No
    Forced : No

    Text #6
    ID : 9
    Format : VobSub
    Muxing mode : zlib
    Codec ID : S_VOBSUB
    Codec ID/Info : Picture based subtitle format used on DVDs
    Duration : 1 h 38 min
    Bit rate : 7 950 b/s
    Count of elements : 1354
    Stream size : 5.60 MiB (0%)
    Title : Thai 1080p-EntHD_ProMaster
    Language : Thai

    Default : No
    Forced : No

    Text #7
    ID : 10
    Format : VobSub
    Muxing mode : zlib
    Codec ID : S_VOBSUB
    Codec ID/Info : Picture based subtitle format used on DVDs
    Duration : 1 h 38 min
    Bit rate : 7 950 b/s
    Count of elements : 1354
    Stream size : 5.60 MiB (0%)
    Title : Thai 1080p LOW-EntHD_ProMaster
    Language : Thai

    Default : No
    Forced : No

    Text #8
    ID : 11
    Format : VobSub
    Muxing mode : zlib
    Codec ID : S_VOBSUB
    Codec ID/Info : Picture based subtitle format used on DVDs
    Duration : 1 h 38 min
    Bit rate : 2 427 b/s
    Count of elements : 1354
    Stream size : 1.71 MiB (0%)
    Title : Thai 480p-EntHD_ProMaster
    Language : Thai

    Default : No
    Forced : No

    Text #9
    ID : 12
    Format : VobSub
    Muxing mode : zlib
    Codec ID : S_VOBSUB
    Codec ID/Info : Picture based subtitle format used on DVDs
    Duration : 1 h 38 min
    Bit rate : 2 427 b/s
    Count of elements : 1354
    Stream size : 1.71 MiB (0%)
    Title : Thai 480p LOW-EntHD_ProMaster
    Language : Thai

    Default : No
    Forced : No

    ★ ☆ ✮Modified By EntHD_ProMaster@enthdmovieclub✮ ☆ ★






    Full HD DTS-HD MA 5.1

    Escape.Room.2019.1080p.BluRay.x264.DTS-HD.MA.5.1-EntHD_ProMaster.mkv
    Format : Matroska
    Format version : Version 4 / Version 2
    File size : 9.72 GiB
    Duration : 1 h 39 min
    Overall bit rate : 14.0 Mb/s
    Movie name : Escape.Room.2019.1080p.BluRay.x264.DTS-HD.MA.5.1-EntHD_ProMaster
    Encoded date : UTC 2019-04-15 05:32:25
    Writing application : mkvmerge v15.0.0 ('Duel with the Devil') 64-bit
    Writing library : libebml v1.3.5 + libmatroska v1.4.5
    Cover : Yes
    Attachments : cover.jpg

    Video
    ID : 1
    Format : AVC
    Format/Info : Advanced Video Codec
    Format profile : [email protected]
    Format settings : CABAC / 5 Ref Frames
    Format settings, CABAC : Yes
    Format settings, ReFrames : 5 frames
    Codec ID : V_MPEG4/ISO/AVC
    Duration : 1 h 39 min
    Bit rate : 9 485 kb/s
    Width : 1 920 pixels
    Height : 808 pixels

    Display aspect ratio : 2.40:1
    Frame rate mode : Constant
    Frame rate : 23.976 (24000/1001) FPS
    Color space : YUV
    Chroma subsampling : 4:2:0
    Bit depth : 8 bits
    Scan type : Progressive
    Bits/(Pixel*Frame) : 0.255
    Stream size : 6.60 GiB (68%)
    Title : Modified By [email protected]
    Writing library : x264 core 157 r2970 5493be8
    Encoding settings : cabac=1 / ref=5 / deblock=1:-3:-3 / analyse=0x3:0x113 / me=umh / subme=8 / psy=1 / psy_rd=1.00:0.00 / mixed_ref=1 / me_range=16 / chroma_me=1 / trellis=1 / 8x8dct=1 / cqm=0 / deadzone=21,11 / fast_pskip=1 / chroma_qp_offset=-2 / threads=25 / lookahead_threads=4 / sliced_threads=0 / nr=0 / decimate=1 / interlaced=0 / bluray_compat=0 / constrained_intra=0 / bframes=3 / b_pyramid=2 / b_adapt=1 / b_bias=0 / direct=3 / weightb=1 / open_gop=0 / weightp=2 / keyint=250 / keyint_min=23 / scenecut=40 / intra_refresh=0 / rc_lookahead=50 / rc=2pass / mbtree=1 / bitrate=9485 / ratetol=1.0 / qcomp=0.60 / qpmin=0 / qpmax=69 / qpstep=4 / cplxblur=20.0 / qblur=0.5 / ip_ratio=1.40 / aq=1:1.00
    Language : English
    Default : Yes
    Forced : No

    Audio #1
    ID : 2
    Format : AC-3
    Format/Info : Audio Coding 3
    Codec ID : A_AC3
    Duration : 1 h 39 min
    Bit rate mode : Constant
    Bit rate : 640 kb/s
    Channel(s) : 6 channels

    Channel positions : Front: L C R, Side: L R, LFE
    Sampling rate : 48.0 kHz
    Frame rate : 31.250 FPS (1536 SPF)
    Bit depth : 16 bits
    Compression mode : Lossy
    Stream size : 456 MiB (5%)
    Title : Thai AC3 5.1 BluRay Master-EntHD_ProMaster
    Language : Thai

    Service kind : Complete Main
    Default : Yes
    Forced : Yes

    Audio #2
    ID : 3
    Format : DTS
    Format/Info : Digital Theater Systems
    Format profile : MA / Core
    Codec ID : A_DTS
    Duration : 1 h 39 min
    Bit rate mode : Variable / Constant
    Bit rate : 2 247 kb/s / 1 509 kb/s
    Channel(s) : 6 channels

    Channel positions : Front: L C R, Side: L R, LFE
    Sampling rate : 48.0 kHz
    Frame rate : 93.750 FPS (512 SPF)
    Bit depth : 16 bits
    Compression mode : Lossless / Lossy
    Stream size : 1.56 GiB (16%)
    Title : Eng DTS-HD.MA.5.1
    Language : English

    Default : No
    Forced : No

    Audio #3
    ID : 4
    Format : DTS
    Format/Info : Digital Theater Systems
    Codec ID : A_DTS
    Duration : 1 h 39 min
    Bit rate mode : Constant
    Bit rate : 1 509 kb/s
    Channel(s) : 6 channels

    Channel positions : Front: L C R, Side: L R, LFE
    Sampling rate : 48.0 kHz
    Frame rate : 93.750 FPS (512 SPF)
    Bit depth : 16 bits
    Compression mode : Lossy
    Stream size : 1.05 GiB (11%)
    Title : Eng DTS 5.1-EntHD_ProMaster
    Language : English

    Default : No
    Forced : No

    Text #1
    ID : 5
    Format : UTF-8
    Codec ID : S_TEXT/UTF8
    Codec ID/Info : UTF-8 Plain Text
    Duration : 1 h 33 min
    Bit rate : 70 b/s
    Count of elements : 1359
    Stream size : 48.1 KiB (0%)
    Title : English-SRT-EntHD_ProMaster
    Language : English
    Default : No
    Forced : No

    Text #2
    ID : 6
    Format : PGS
    Muxing mode : zlib
    Codec ID : S_HDMV/PGS
    Codec ID/Info : Picture based subtitle format used on BDs/HD-DVDs
    Duration : 1 h 37 min
    Bit rate : 45.6 kb/s
    Count of elements : 3013
    Stream size : 31.6 MiB (0%)
    Title : English-SDH-PGS-EntHD_ProMaster
    Language : English
    Default : No
    Forced : No

    Text #3
    ID : 7
    Format : PGS
    Muxing mode : zlib
    Codec ID : S_HDMV/PGS
    Codec ID/Info : Picture based subtitle format used on BDs/HD-DVDs
    Duration : 1 h 33 min
    Bit rate : 41.8 kb/s
    Count of elements : 2636
    Stream size : 28.0 MiB (0%)
    Title : English-PGS-EntHD_ProMaster
    Language : English
    Default : No
    Forced : No

    Text #4
    ID : 8
    Format : PGS
    Muxing mode : zlib
    Codec ID : S_HDMV/PGS
    Codec ID/Info : Picture based subtitle format used on BDs/HD-DVDs
    Duration : 1 h 38 min
    Bit rate : 30.8 kb/s
    Count of elements : 2712
    Stream size : 21.6 MiB (0%)
    Title : Thai-PGS BluRay Master-EntHD_ProMaster
    Language : Thai

    Default : No
    Forced : Yes

    Text #5
    ID : 9
    Format : PGS
    Muxing mode : zlib
    Codec ID : S_HDMV/PGS
    Codec ID/Info : Picture based subtitle format used on BDs/HD-DVDs
    Duration : 1 h 38 min
    Bit rate : 30.7 kb/s
    Count of elements : 2708
    Stream size : 21.6 MiB (0%)
    Title : Thai-PGS BluRay Master LOW-EntHD_ProMaster
    Language : Thai

    Default : No
    Forced : No

    Text #6
    ID : 10
    Format : VobSub
    Muxing mode : zlib
    Codec ID : S_VOBSUB
    Codec ID/Info : Picture based subtitle format used on DVDs
    Duration : 1 h 38 min
    Bit rate : 7 950 b/s
    Count of elements : 1354
    Stream size : 5.60 MiB (0%)
    Title : Thai 1080p-EntHD_ProMaster
    Language : Thai

    Default : No
    Forced : No

    Text #7
    ID : 11
    Format : VobSub
    Muxing mode : zlib
    Codec ID : S_VOBSUB
    Codec ID/Info : Picture based subtitle format used on DVDs
    Duration : 1 h 38 min
    Bit rate : 7 950 b/s
    Count of elements : 1354
    Stream size : 5.60 MiB (0%)
    Title : Thai 1080p LOW-EntHD_ProMaster
    Language : Thai

    Default : No
    Forced : No

    Text #8
    ID : 12
    Format : VobSub
    Muxing mode : zlib
    Codec ID : S_VOBSUB
    Codec ID/Info : Picture based subtitle format used on DVDs
    Duration : 1 h 38 min
    Bit rate : 2 427 b/s
    Count of elements : 1354
    Stream size : 1.71 MiB (0%)
    Title : Thai 480p-EntHD_ProMaster
    Language : Thai

    Default : No
    Forced : No

    Text #9
    ID : 13
    Format : VobSub
    Muxing mode : zlib
    Codec ID : S_VOBSUB
    Codec ID/Info : Picture based subtitle format used on DVDs
    Duration : 1 h 38 min
    Bit rate : 2 427 b/s
    Count of elements : 1354
    Stream size : 1.71 MiB (0%)
    Title : Thai 480p LOW-EntHD_ProMaster
    Language : Thai

    Default : No
    Forced : No

    ★ ☆ ✮Modified By EntHD_ProMaster@enthdmovieclub✮ ☆ ★






    BDRM Remux Full Bitrate


    Escape.Room.2019.1080p.BluRay.REMUX.AVC.DTS-HD.MA.5.1-EntHD_ProMaster.mkv
    Format : Matroska
    Format version : Version 4 / Version 2
    File size : 20.2 GiB
    Duration : 1 h 39 min
    Overall bit rate mode : Variable
    Overall bit rate : 29.0 Mb/s
    Movie name : Escape.Room.2019.1080p.BluRay.REMUX.AVC.DTS-HD.MA.5.1-EntHD_ProMaster
    Encoded date : UTC 2019-04-15 05:51:31
    Writing application : mkvmerge v15.0.0 ('Duel with the Devil') 64-bit
    Writing library : libebml v1.3.5 + libmatroska v1.4.5
    Cover : Yes
    Attachments : cover.jpg

    Video
    ID : 1
    Format : AVC
    Format/Info : Advanced Video Codec
    Format profile : [email protected]
    Format settings : CABAC / 2 Ref Frames
    Format settings, CABAC : Yes
    Format settings, ReFrames : 2 frames
    Format settings, GOP : M=1, N=10
    Codec ID : V_MPEG4/ISO/AVC
    Duration : 1 h 39 min
    Bit rate mode : Variable
    Bit rate : 23.9 Mb/s
    Width : 1 920 pixels
    Height : 1 080 pixels

    Display aspect ratio : 16:9
    Frame rate mode : Constant
    Frame rate : 23.976 (24000/1001) FPS
    Color space : YUV
    Chroma subsampling : 4:2:0
    Bit depth : 8 bits
    Scan type : Progressive
    Bits/(Pixel*Frame) : 0.480
    Stream size : 16.6 GiB (82%)
    Title : Modified By [email protected]
    Language : English
    Default : No
    Forced : No

    Audio #1
    ID : 2
    Format : AC-3
    Format/Info : Audio Coding 3
    Codec ID : A_AC3
    Duration : 1 h 39 min
    Bit rate mode : Constant
    Bit rate : 640 kb/s
    Channel(s) : 6 channels

    Channel positions : Front: L C R, Side: L R, LFE
    Sampling rate : 48.0 kHz
    Frame rate : 31.250 FPS (1536 SPF)
    Bit depth : 16 bits
    Compression mode : Lossy
    Stream size : 456 MiB (2%)
    Title : Thai AC3 5.1 BluRay Master-EntHD_ProMaster
    Language : Thai

    Service kind : Complete Main
    Default : Yes
    Forced : Yes

    Audio #2
    ID : 3
    Format : DTS
    Format/Info : Digital Theater Systems
    Format profile : MA / Core
    Codec ID : A_DTS
    Duration : 1 h 39 min
    Bit rate mode : Variable / Constant
    Bit rate : 2 247 kb/s / 1 509 kb/s
    Channel(s) : 6 channels

    Channel positions : Front: L C R, Side: L R, LFE
    Sampling rate : 48.0 kHz
    Frame rate : 93.750 FPS (512 SPF)
    Bit depth : 16 bits
    Compression mode : Lossless / Lossy
    Stream size : 1.56 GiB (8%)
    Title : Eng DTS-HD.MA.5.1
    Language : English

    Default : No
    Forced : No

    Audio #3
    ID : 4
    Format : DTS
    Format/Info : Digital Theater Systems
    Codec ID : A_DTS
    Duration : 1 h 39 min
    Bit rate mode : Constant
    Bit rate : 1 509 kb/s
    Channel(s) : 6 channels

    Channel positions : Front: L C R, Side: L R, LFE
    Sampling rate : 48.0 kHz
    Frame rate : 93.750 FPS (512 SPF)
    Bit depth : 16 bits
    Compression mode : Lossy
    Stream size : 1.05 GiB (5%)
    Title : Eng.DTS 5.1
    Language : English

    Default : No
    Forced : No

    Audio #4
    ID : 5
    Format : AC-3
    Format/Info : Audio Coding 3
    Codec ID : A_AC3
    Duration : 1 h 39 min
    Bit rate mode : Constant
    Bit rate : 640 kb/s
    Channel(s) : 6 channels

    Channel positions : Front: L C R, Side: L R, LFE
    Sampling rate : 48.0 kHz
    Frame rate : 31.250 FPS (1536 SPF)
    Bit depth : 16 bits
    Compression mode : Lossy
    Stream size : 456 MiB (2%)
    Title : Eng AC3 5.1
    Language : English

    Service kind : Complete Main
    Default : No
    Forced : No

    Text #1
    ID : 6
    Format : UTF-8
    Codec ID : S_TEXT/UTF8
    Codec ID/Info : UTF-8 Plain Text
    Duration : 1 h 33 min
    Bit rate : 70 b/s
    Count of elements : 1359
    Stream size : 48.1 KiB (0%)
    Title : English-SRT-EntHD_ProMaster
    Language : English
    Default : No
    Forced : No

    Text #2
    ID : 7
    Format : PGS
    Muxing mode : zlib
    Codec ID : S_HDMV/PGS
    Codec ID/Info : Picture based subtitle format used on BDs/HD-DVDs
    Duration : 1 h 37 min
    Bit rate : 45.6 kb/s
    Count of elements : 3013
    Stream size : 31.6 MiB (0%)
    Title : English-SDH-PGS-EntHD_ProMaster
    Language : English
    Default : No
    Forced : No

    Text #3
    ID : 8
    Format : PGS
    Muxing mode : zlib
    Codec ID : S_HDMV/PGS
    Codec ID/Info : Picture based subtitle format used on BDs/HD-DVDs
    Duration : 1 h 33 min
    Bit rate : 41.8 kb/s
    Count of elements : 2636
    Stream size : 28.0 MiB (0%)
    Title : English-PGS-EntHD_ProMaster
    Language : English
    Default : No
    Forced : No

    Text #4
    ID : 9
    Format : PGS
    Muxing mode : zlib
    Codec ID : S_HDMV/PGS
    Codec ID/Info : Picture based subtitle format used on BDs/HD-DVDs
    Duration : 1 h 38 min
    Bit rate : 30.8 kb/s
    Count of elements : 2712
    Stream size : 21.6 MiB (0%)
    Title : Thai-PGS BluRay Master-EntHD_ProMaster
    Language : Thai

    Default : Yes
    Forced : Yes

    Text #5
    ID : 10
    Format : PGS
    Muxing mode : zlib
    Codec ID : S_HDMV/PGS
    Codec ID/Info : Picture based subtitle format used on BDs/HD-DVDs
    Duration : 1 h 38 min
    Bit rate : 30.7 kb/s
    Count of elements : 2708
    Stream size : 21.6 MiB (0%)
    Title : Thai-PGS BluRay Master LOW-EntHD_ProMaster
    Language : Thai

    Default : No
    Forced : No

    Text #6
    ID : 11
    Format : VobSub
    Muxing mode : zlib
    Codec ID : S_VOBSUB
    Codec ID/Info : Picture based subtitle format used on DVDs
    Duration : 1 h 38 min
    Bit rate : 7 950 b/s
    Count of elements : 1354
    Stream size : 5.60 MiB (0%)
    Title : Thai 1080p-EntHD_ProMaster
    Language : Thai

    Default : No
    Forced : No

    Text #7
    ID : 12
    Format : VobSub
    Muxing mode : zlib
    Codec ID : S_VOBSUB
    Codec ID/Info : Picture based subtitle format used on DVDs
    Duration : 1 h 38 min
    Bit rate : 7 950 b/s
    Count of elements : 1354
    Stream size : 5.60 MiB (0%)
    Title : Thai 1080p LOW-EntHD_ProMaster
    Language : Thai

    Default : No
    Forced : No

    Text #8
    ID : 13
    Format : VobSub
    Muxing mode : zlib
    Codec ID : S_VOBSUB
    Codec ID/Info : Picture based subtitle format used on DVDs
    Duration : 1 h 38 min
    Bit rate : 2 427 b/s
    Count of elements : 1354
    Stream size : 1.71 MiB (0%)
    Title : Thai 480p-EntHD_ProMaster
    Language : Thai

    Default : No
    Forced : No

    Text #9
    ID : 14
    Format : VobSub
    Muxing mode : zlib
    Codec ID : S_VOBSUB
    Codec ID/Info : Picture based subtitle format used on DVDs
    Duration : 1 h 38 min
    Bit rate : 2 427 b/s
    Count of elements : 1354
    Stream size : 1.71 MiB (0%)
    Title : Thai 480p LOW-EntHD_ProMaster
    Language : Thai

    Default : No
    Forced : No

    ★ ☆ ✮Modified By EntHD_ProMaster@enthdmovieclub✮ ☆ ★


















    Escape Room เกิดขึ้นเมื่อกลุ่มคนแปลกหน้าต้องมารวมกันในห้องปริศ นาที่ไร้ทางออก โดยมีกล้องวงจรปิดเฝ้าดูพวกเขาจากภายนอก วิธีเดียวที่จะออกจากห้องนี้ได้ จะต้องไขรหัสลับของห้องให้ได้ ถ้าแก้ไขรหัสไม่สำเร็จจะต้องตาย แต่หากใครเป็นผู้ชนะของเกมส์นี้จะได้รับรางวัลเป็นเง ินหมื่นดอลล่าร์!! แต่เรื่องราวไม่ง่ายขนาดนั้นเพราะคนที่บงการอยู่เบื้ องหลังเกมส์นี้มีวัตถุประสงค์บางอย่าง?


    ---------------------------------------------------------------------------------------------------------------

    ***ข้อแนะนำในการโหลดไฟล์จากเว็บต่างๆ***

    ###ควรใช้ IDM ในการโหลด และควรตั้งค่าเริ่มต้นเชื่อมต่อ ตั้งแต่ 8 ขึ้นไป ส่วนในกรณีที่ IDM ไม่ขึ้นตอนกดโหลดให้ติดตั้งส่วนขยายของ IDM ในเบราว์เซอร์ที่ใช้ ##



    SSpMiniHD

    http://cornfile.com/lbyyzz9iug1n

    SpMiniHD

    http://cornfile.com/eck1p2z2z29q

    MiniHD

    http://cornfile.com/d58xrywpvzsz

    Full HD DTS 5.1

    http://cornfile.com/q1qun2d4wo04

    Full HD DTS-HD MA 5.1

    http://cornfile.com/ttbbyvm16ijd

    BDRM Remux Full Bitrate

    http://cornfile.com/y4mup4xb863n


    >>สมัคร VIP cornfile <<

    >> วิธีสมัคร VIP cornfile <<


    ติดตามอัพเดตเรื่องอื่นๆได้ที่

    https://enthdmovieclub.blogspot.com/
    Last edited by @@[email protected]@; 04-15-2019 at 07:42 PM.
    enthd

+ Reply to Thread

Thread Information

Users Browsing this Thread

There are currently 1 users browsing this thread. (0 members and 1 guests)

     

Posting Permissions

  • You may not post new threads
  • You may not post replies
  • You may not post attachments
  • You may not edit your posts