+ Reply to Thread
Results 1 to 2 of 2
  1. #1
    Senior Member
    Join Date
    Feb 2015
    Posts
    3,402
    Thanks
    0
    Thanked 1,379 Times in 976 Posts

    Arrow [ลิ๊งเดียวจบ][FullHQ+SuperHQ] Interstellar (2014) [IMAX Version] : อินเตอร์สเตลลาร์ ทะยานดาวกู้โลก [1080p][พากย์ไทย5.1+อังกฤษDTS][บรรยายไทย+อังกฤษ]

    [ลิ๊งเดียวจบ][FullHQ+SuperHQ] Interstellar (2014) [IMAX Version] : อินเตอร์สเตลลาร์ ทะยานดาวกู้โลก [1080p][พากย์ไทย5.1+อังกฤษDTS][บรรยายไทย+อังกฤษ]

    https://www.imdb.com/title/tt0816692/ 8.6/101,277,660 votes
    Interstellar อินเตอร์สเตลลาร์ ทะยานดาวกู้โลก เป็นเรื่องราวของกลุ่มนักวิทยาศาตร์ที่ค้นพบรูหนอน ที่สามารถทำให้มนุษย์ก้าวข้ามขีดจำกัดของจักรวาล โดยจุดมุ่งหมายของกลุ่มนักวิทยาศาตร์คือการหาดาวดวงใ หม่ เพื่อสร้างโลกใหม่ของมนุษย์ หลังจากการมีมลพิษในอาการทำให้พืชผลนั้นไม่สามารถปลู กขึ้นได้อีกเลย!!!
    Format : Matroska
    Format version : Version 4 / Version 2
    File size : 5.37 GiB
    Duration : 2h 49mn
    Overall bit rate : 4 551 Kbps
    Movie name : Interstellar.2014.IMAX.BrRip.DTS.x264.THB
    Encoded date : UTC 2010-02-22 21:41:31
    Writing application : mkvmerge v5.9.0 ( On The Loose ) built on Dec 9 2012 15:37:01
    Writing library : libebml v1.3.0 + libmatroska v1.4.0

    Video
    ID : 1
    Format : AVC
    Format/Info : Advanced Video Codec
    Format profile : [email protected]
    Format settings, CABAC : Yes
    Format settings, ReFrames : 4 frames
    Codec ID : V_MPEG4/ISO/AVC
    Duration : 2h 49mn
    Bit rate : 3 003 Kbps
    Width : 1 920 pixels
    Height : 1 080 pixels
    Display aspect ratio : 16:9
    Frame rate mode : Constant
    Frame rate : 23.976 fps
    Color space : YUV
    Chroma subsampling : 4:2:0
    Bit depth : 8 bits
    Scan type : Progressive
    Bits/(Pixel*Frame) : 0.060
    Stream size : 3.62 GiB (67%)
    Title : Interstellar.2014.IMAX.BrRip.DTS.x264.THB
    Writing library : x264 core 130 r2273 b3065e6
    Encoding settings : cabac=1 / ref=4 / deblock=1:0:0 / analyse=0x3:0x113 / me=umh / subme=10 / psy=1 / psy_rd=1.00:0.00 / mixed_ref=1 / me_range=32 / chroma_me=1 / trellis=2 / 8x8dct=1 / cqm=0 / deadzone=21,11 / fast_pskip=1 / chroma_qp_offset=-2 / threads=12 / lookahead_threads=1 / sliced_threads=0 / nr=0 / decimate=1 / interlaced=0 / bluray_compat=0 / constrained_intra=0 / bframes=4 / b_pyramid=2 / b_adapt=1 / b_bias=0 / direct=1 / weightb=1 / open_gop=0 / weightp=2 / keyint=240 / keyint_min=24 / scenecut=40 / intra_refresh=0 / rc_lookahead=40 / rc=2pass / mbtree=1 / bitrate=3003 / ratetol=1.0 / qcomp=0.60 / qpmin=0 / qpmax=69 / qpstep=4 / cplxblur=20.0 / qblur=0.5 / ip_ratio=1.40 / aq=1:1.00
    Language : English
    Default : Yes
    Forced : No

    Audio #1
    ID : 2
    Format : AC-3
    Format/Info : Audio Coding 3
    Mode extension : CM (complete main)
    Format settings, Endianness : Big
    Codec ID : A_AC3
    Duration : 2h 49mn
    Bit rate mode : Constant
    Bit rate : 640 Kbps
    Channel(s) : 6 channels
    Channel positions : Front: L C R, Side: L R, LFE
    Sampling rate : 48.0 KHz
    Bit depth : 16 bits
    Compression mode : Lossy
    Stream size : 774 MiB (14%)
    Title : Thai BluRay Master
    Language : Thai
    Default : Yes
    Forced : Yes

    Audio #2
    ID : 3
    Format : DTS
    Format/Info : Digital Theater Systems
    Mode : 16
    Format settings, Endianness : Big
    Codec ID : A_DTS
    Duration : 2h 49mn
    Bit rate mode : Constant
    Bit rate : 755 Kbps
    Channel(s) : 6 channels
    Channel positions : Front: L C R, Side: L R, LFE
    Sampling rate : 48.0 KHz
    Bit depth : 24 bits
    Compression mode : Lossy
    Stream size : 912 MiB (17%)
    Title : English DTS
    Language : English
    Default : No
    Forced : No

    Text #1
    ID : 4
    Format : VobSub
    Codec ID : S_VOBSUB
    Codec ID/Info : The same subtitle format used on DVDs
    Title : Thai 480p
    Language : Thai
    Default : No
    Forced : No

    Text #2
    ID : 5
    Format : VobSub
    Codec ID : S_VOBSUB
    Codec ID/Info : The same subtitle format used on DVDs
    Title : Thai 720p
    Language : Thai
    Default : No
    Forced : No

    Text #3
    ID : 6
    Format : VobSub
    Codec ID : S_VOBSUB
    Codec ID/Info : The same subtitle format used on DVDs
    Title : Thai 1080p BluRay Master
    Language : Thai
    Default : No
    Forced : No

    Text #4
    ID : 7
    Format : VobSub
    Codec ID : S_VOBSUB
    Codec ID/Info : The same subtitle format used on DVDs
    Title : Thai 1080p Yellow
    Language : Thai
    Default : No
    Forced : No

    Text #5
    ID : 8
    Format : VobSub
    Codec ID : S_VOBSUB
    Codec ID/Info : The same subtitle format used on DVDs
    Title : Thai 1080p Low
    Language : Thai
    Default : Yes
    Forced : Yes

    Text #6
    ID : 9
    Format : VobSub
    Codec ID : S_VOBSUB
    Codec ID/Info : The same subtitle format used on DVDs
    Title : Thai 1080p BIG
    Language : Thai
    Default : No
    Forced : No

    Text #7
    ID : 10
    Format : VobSub
    Codec ID : S_VOBSUB
    Codec ID/Info : The same subtitle format used on DVDs
    Title : Thai 1080p Low [BIG]
    Language : Thai
    Default : No
    Forced : No

    Text #8
    ID : 11
    Format : PGS
    Codec ID : S_HDMV/PGS
    Codec ID/Info : The same subtitle format used on BDs/HD-DVDs
    Title : Thai PGS BluRay Master
    Language : Thai
    Default : No
    Forced : No

    Text #9
    ID : 12
    Format : PGS
    Codec ID : S_HDMV/PGS
    Codec ID/Info : The same subtitle format used on BDs/HD-DVDs
    Title : Thai PGS Yellow
    Language : Thai
    Default : No
    Forced : No

    Text #10
    ID : 13
    Format : PGS
    Codec ID : S_HDMV/PGS
    Codec ID/Info : The same subtitle format used on BDs/HD-DVDs
    Title : Thai PGS Low
    Language : Thai
    Default : No
    Forced : No

    Text #11
    ID : 14
    Format : VobSub
    Codec ID : S_VOBSUB
    Codec ID/Info : The same subtitle format used on DVDs
    Title : English
    Language : English
    Default : No
    Forced : No


    FullHQ 1080p
    Download
    SuperHQ 1080p
    Download

    ลิ๊งเดียวจบ
    Download
    *** ถ้าโหลดไม่ได้แสดงว่าติด Limit ต้องรอพรุ่งนี้เพราะคนโหลดเยอะนะครับ ***

    ลิ๊งเดียวจบ
    Download
    PASS : http://hdfile4you.clubhd4you.net/

  2. The Following User Says Thank You to 4youloadedth For This Useful Post:

    mutjarin2507 (04-16-2019)

  3. #2
    Senior Member
    Join Date
    Aug 2018
    Posts
    180
    Thanks
    4
    Thanked 36 Times in 29 Posts
    เรื่องนี้สนุกมาก ผมดูแล้วนะ แต่เข้ามาช่วยคลิ๊ก ก็เพื่อการที่เราจะได้เป็นพันธมิตรกัน ถ้าว่างๆผมจะมาช่วยคลิ๊กวันละ 2 เรื่องนะ เพราะ 1 ip มันนับรายได้ให้แค่นั้นต่อวัน

+ Reply to Thread

Thread Information

Users Browsing this Thread

There are currently 1 users browsing this thread. (0 members and 1 guests)

     

Posting Permissions

  • You may not post new threads
  • You may not post replies
  • You may not post attachments
  • You may not edit your posts