+ Reply to Thread
Results 1 to 2 of 2
  1. #1
    Administrators Duckload.us's Avatar
    Join Date
    Dec 2010
    Posts
    106,250
    Thanks
    9
    Thanked 110,185 Times in 51,465 Posts

    Cool [ฝรั่ง]-[ซับไทยคุณภาพจาก HBO] Game of Thrones Season 8 (Episode 01 : Winterfell) มหาศึกชิงบัลลังก์ ปี8 ตอนที่ 1 Web-DL 1080p [เสียงอังกฤษ 5.1 + ซับไทยจาก HBO]-Encode.H.264.1080p. [From HD-TV]-[Soundtrack บรรยายไทย]








    เรื่องย่อ
    มหาศึกชิงบัลลังก์ (อังกฤษ: Game of Thrones) เป็นภาพยนตร์ชุดทางโทรทัศน์แนวแฟนตาซีย้อนยุคของสถาน ีโทรทัศน์เอชบีโอ สร้างสรรค์โดยเดวิด เบนิออฟฟ์ และดี. บี. ไวส์ ดัดแปลงจากหนังสือเล่มที่หนึ่งของชุดหนังสือนิยายขาย ดีของจอร์จ อาร์. อาร์. มาร์ติน ชุด มหาศึกชิงบัลลังก์ เรื่อง เกมล่าบัลลังก์ ฉายครั้งแรกในสหรัฐอเมริกา 17 เมษายน 2554 ภาพยนตร์ชุดนี้ได้รับเสียงตอบรับอย่างดีมาก มีผู้ติดตามเป็นจำนวนมาก และได้รับการอนุมัติให้ทำฤดูกาลที่ 2 ต่อจากฤดูกาลแรก ในวันที่ 19 เมษายน 2554 สองวันหลังจากฉายตอนแรก




    General
    Unique ID : 170799754112673041797697342624020705520 (0x807ED60A40EB6501998B6F8D0A7230F0)
    Complete name : E:Game.of.Thrones.S08E01.1080p.WEB.H264-MEMENTOGame.of.thrones.s08e01.1080p.web.h264-vicvicky).mkv
    Format : Matroska
    Format version : Version 4 / Version 2
    File size : 3.37 GiB
    Duration : 1 h 4 min
    Overall bit rate : 7 467 kb/s
    Encoded date : UTC 2019-04-15 07:05:51
    Writing application : mkvmerge v8.9.0 ('Father Daughter') 64bit
    Writing library : libebml v1.3.3 + libmatroska v1.4.4

    Video
    ID : 1
    Format : AVC
    Format/Info : Advanced Video Codec
    Format profile : [email protected]
    Format settings, CABAC : Yes
    Format settings, RefFrames : 4 frames
    Codec ID : V_MPEG4/ISO/AVC
    Duration : 1 h 4 min
    Bit rate mode : Constant
    Bit rate : 6 766 kb/s
    Nominal bit rate : 10 000 kb/s
    Width : 1 920 pixels
    Height : 1 080 pixels
    Display aspect ratio : 16:9
    Frame rate mode : Constant
    Frame rate : 23.976 (24000/1001) FPS
    Color space : YUV
    Chroma subsampling : 4:2:0
    Bit depth : 8 bits
    Scan type : Progressive
    Bits/(Pixel*Frame) : 0.136
    Stream size : 3.05 GiB (91%)
    Language : English
    Default : Yes
    Forced : No
    Color range : Limited
    Color primaries : BT.709
    Transfer characteristics : BT.709
    Matrix coefficients : BT.709

    Audio
    ID : 2
    Format : E-AC-3
    Format/Info : Enhanced Audio Coding 3
    Format settings, Endianness : Big
    Codec ID : A_EAC3
    Duration : 1 h 4 min
    Bit rate mode : Constant
    Bit rate : 640 kb/s
    Channel(s) : 6 channels
    Channel positions : Front: L C R, Side: L R, LFE
    Sampling rate : 48.0 kHz
    Frame rate : 187.500 FPS (256 SPF)
    Compression mode : Lossy
    Delay relative to video : 4 ms
    Stream size : 296 MiB (9%)
    Language : English
    Service kind : Complete Main
    Default : Yes
    Forced : No

    Text 1
    ID : 3
    Format : VobSub
    Codec ID : S_VOBSUB
    Codec ID/Info : Picture based subtitle format used on DVDs
    Duration : 47 min 25 s
    Bit rate : 2 343 b/s
    Count of elements : 475
    Stream size : 814 KiB (0%)
    Title : Angsna 480p
    Language : Thai
    Default : Yes
    Forced : No

    Text 2
    ID : 4
    Format : VobSub
    Codec ID : S_VOBSUB
    Codec ID/Info : Picture based subtitle format used on DVDs
    Duration : 47 min 25 s
    Bit rate : 8 424 b/s
    Count of elements : 475
    Stream size : 2.86 MiB (0%)
    Title : Angsna 1080p
    Language : Thai
    Default : No
    Forced : No

    Text 3
    ID : 5
    Format : VobSub
    Codec ID : S_VOBSUB
    Codec ID/Info : Picture based subtitle format used on DVDs
    Duration : 47 min 25 s
    Bit rate : 6 115 b/s
    Count of elements : 475
    Stream size : 2.07 MiB (0%)
    Title : Tahoma 1080p
    Language : Thai
    Default : No
    Forced : No

    Text 4
    ID : 6
    Format : PGS
    Codec ID : S_HDMV/PGS
    Codec ID/Info : Picture based subtitle format used on BDs/HD-DVDs
    Duration : 47 min 25 s
    Bit rate : 35.3 kb/s
    Count of elements : 950
    Stream size : 12.0 MiB (0%)
    Title : Angsna PGS
    Language : Thai
    Default : No
    Forced : No

    Text 5
    ID : 7
    Format : PGS
    Codec ID : S_HDMV/PGS
    Codec ID/Info : Picture based subtitle format used on BDs/HD-DVDs
    Duration : 47 min 25 s
    Bit rate : 26.9 kb/s
    Count of elements : 950
    Stream size : 9.12 MiB (0%)
    Title : Tahoma PGS
    Language : Thai
    Default : No
    Forced : No

    Text 6
    ID : 8
    Format : UTF-8
    Codec ID : S_TEXT/UTF8
    Codec ID/Info : UTF-8 Plain Text
    Duration : 1 h 4 min
    Bit rate : 54 b/s
    Count of elements : 866
    Stream size : 25.9 KiB (0%)
    Language : English
    Default : No
    Forced : No














    Download: filecondo
    http://www.filecondo.com/dl.php?f=6e729d1HgXDG
    Download: cornfile
    http://cornfile.com/u1nqjif20j6w
    Download: mekafile
    http://www.mekafile.com/dl.php?f=IJd2ebbSUIJG

  2. The Following 2 Users Say Thank You to Duckload.us For This Useful Post:

    jangska (04-24-2019), kappa (04-20-2019)

  3. #2
    Junior Member jangska's Avatar
    Join Date
    Sep 2015
    Posts
    8
    Thanks
    43
    Thanked 0 Times in 0 Posts
    ลิ้งข้าวโพดเสียครับ

+ Reply to Thread

Thread Information

Users Browsing this Thread

There are currently 1 users browsing this thread. (0 members and 1 guests)

     

Posting Permissions

  • You may not post new threads
  • You may not post replies
  • You may not post attachments
  • You may not edit your posts