Quote:










Quote:




Quote:

เรื่องราวของหญิงสาวผู้ออกเดินทางจากหมู่บ้าน ที่ห่างไกลเพื่อเข้ามาเรียนในมหาวิทยาลัยแห่งหนึ่ง เธอได้มาอาศัยอยู่ที่อพาร์ตเมนต์ ซึ่งเป็นสถานที่ที่เธอได้พบกับ รุ่นพี่ปี 2 คณะเดียวกับเธอ จนเป็นจุดเริ่มต้นของความรัก และความสัมพันธ์ทางเพศ ที่ไม่อาจเป็นไปได้ด้วยกันได้ แต่อย่างไรก็ตามนั้นไม่ใช่ปัญหา ในความรักที่เธอกับเขามีต่อกัน



Quote:
*ดู INFO Report คลิ๊ก!*
Format : Matroska
Format version : Version 4 / Version 2
File size : 612 MiB
Duration : 28 min 27 s
Overall bit rate mode : Variable
Overall bit rate : 3 008 kb/s
Movie name : [email protected]

Video
ID : 1
Format : AVC
Format/Info : Advanced Video Codec
Format profile : [email protected]
Format settings, CABAC : Yes
Format settings, ReFrames : 3 frames
Codec ID : V_MPEG4/ISO/AVC
Duration : 28 min 27 s
Bit rate mode : Variable
Bit rate : 2 870 kb/s
Maximum bit rate : 4 305 kb/s
Width : 1 920 pixels
Height : 1 080 pixels
Display aspect ratio : 16:9
Frame rate mode : Constant
Frame rate : 23.976 (24000/1001) FPS
Color space : YUV
Chroma subsampling : 4:2:0
Bit depth : 8 bits
Scan type : Progressive
Bits/(Pixel*Frame) : 0.058
Stream size : 560 MiB (91%)
Writing library : x264 core 148 r2715 7e75228
Encoding settings : cabac=1 / ref=3 / deblock=1:0:0 / analyse=0x1:0x111 / me=umh / subme=10 / psy=1 / psy_rd=1.00:0.00 / mixed_ref=1 / me_range=24 / chroma_me=1 / trellis=2 / 8x8dct=0 / cqm=0 / deadzone=21,11 / fast_pskip=1 / chroma_qp_offset=-2 / threads=8 / lookahead_threads=1 / sliced_threads=0 / nr=0 / decimate=1 / interlaced=0 / bluray_compat=0 / stitchable=1 / constrained_intra=0 / bframes=2 / b_pyramid=0 / b_adapt=2 / b_bias=0 / direct=3 / weightb=1 / open_gop=0 / weightp=2 / keyint=48 / keyint_min=25 / scenecut=0 / intra_refresh=0 / rc_lookahead=48 / rc=2pass / mbtree=1 / bitrate=2870 / ratetol=1.0 / qcomp=0.50 / qpmin=6 / qpmax=51 / qpstep=4 / cplxblur=20.0 / qblur=0.5 / vbv_maxrate=4305 / vbv_bufsize=5740 / nal_hrd=vbr / filler=0 / ip_ratio=1.40 / aq=1:1.00
Default : Yes
Forced : No
HANDLER_NAME : Video Media Handler

Audio 1
ID : 2
Format : E-AC-3
Format/Info : Enhanced Audio Coding 3
Format settings, Endianness : Big
Codec ID : A_EAC3
Duration : 28 min 27 s
Bit rate mode : Constant
Bit rate : 128 kb/s
Channel(s) : 2 channels
Channel positions : Front: L R
Sampling rate : 48.0 kHz
Frame rate : 187.500 FPS (256 spf)
Compression mode : Lossy
Stream size : 26.1 MiB (4%)
Title : Japanese [Original]
Language : Japanese
Service kind : Complete Main
Default : Yes
Forced : No
HANDLER_NAME : Audio Media Handler

Audio 2
ID : 3
Format : E-AC-3
Format/Info : Enhanced Audio Coding 3
Format settings, Endianness : Big
Codec ID : A_EAC3
Duration : 28 min 27 s
Bit rate mode : Constant
Bit rate : 128 kb/s
Channel(s) : 2 channels
Channel positions : Front: L R
Sampling rate : 48.0 kHz
Frame rate : 187.500 FPS (256 spf)
Compression mode : Lossy
Stream size : 26.1 MiB (4%)
Title : Japanese - Audio des--cription
Language : Japanese
Service kind : Complete Main
Default : No
Forced : No
HANDLER_NAME : Audio Media Handler

Text 1
ID : 4
Format : UTF-8
Codec ID : S_TEXT/UTF8
Codec ID/Info : UTF-8 Plain Text
Duration : 28 min 11 s
Bit rate : 45 b/s
Count of elements : 262
Stream size : 9.36 KiB (0%)
Title : Japanese
Language : Japanese
Default : No
Forced : No

Text 2
ID : 5
Format : UTF-8
Codec ID : S_TEXT/UTF8
Codec ID/Info : UTF-8 Plain Text
Duration : 28 min 6 s
Bit rate : 24 b/s
Count of elements : 220
Stream size : 5.05 KiB (0%)
Title : English
Language : English
Default : No
Forced : No

Text 3
ID : 6
Format : UTF-8
Codec ID : S_TEXT/UTF8
Codec ID/Info : UTF-8 Plain Text
Duration : 28 min 11 s
Bit rate : 62 b/s
Count of elements : 224
Stream size : 12.9 KiB (0%)
Title : Thai
Language : Thai
Default : No
Forced : No





Quote:




1
http://www.filecondo.com/dl.php?f=b95e151HhRpw
2
http://www.filecondo.com/dl.php?f=566fab1HhRqu
3
http://www.filecondo.com/dl.php?f=R85f3f1HhRro
4
http://www.filecondo.com/dl.php?f=Ffecc31HhRsl
5
http://www.filecondo.com/dl.php?f=We7a1a1HhRtk
6
http://www.filecondo.com/dl.php?f=E8b4f61HhRuo
7
http://www.filecondo.com/dl.php?f=Sd958f1HhRvg
8
http://www.filecondo.com/dl.php?f=wa531c1HhRwm
9
http://www.filecondo.com/dl.php?f=ga47461HhRxd
10
http://www.filecondo.com/dl.php?f=Z9db381HhRye