+ Reply to Thread
Results 1 to 6 of 6
  1. #1
    Administrators Duckload.us's Avatar
    Join Date
    Dec 2010
    Posts
    104,433
    Thanks
    9
    Thanked 107,685 Times in 50,781 Posts

    Cool [ฝรั่ง]Game of Thrones Season 8 (Episode 02 : A Knight of the Seven Kingdoms) มหาศึกชิงบัลลังก์ ปี8 ตอน2 (อัศวินแห่ง 7 อาณาจักร) Web-DL 1080p [เสียงอังกฤษ 5.1 + ซับไทยจาก HBO]-WEB-DL.H.264.1080p. [From HD-TV]-[Soundtrack บรรยายไทย]












    เรื่องย่อ
    มหาศึกชิงบัลลังก์ (อังกฤษ: Game of Thrones) เป็นภาพยนตร์ชุดทางโทรทัศน์แนวแฟนตาซีย้อนยุคของสถาน ีโทรทัศน์เอชบีโอ สร้างสรรค์โดยเดวิด เบนิออฟฟ์ และดี. บี. ไวส์ ดัดแปลงจากหนังสือเล่มที่หนึ่งของชุดหนังสือนิยายขาย ดีของจอร์จ อาร์. อาร์. มาร์ติน ชุด มหาศึกชิงบัลลังก์ เรื่อง เกมล่าบัลลังก์ ฉายครั้งแรกในสหรัฐอเมริกา 17 เมษายน 2554 ภาพยนตร์ชุดนี้ได้รับเสียงตอบรับอย่างดีมาก มีผู้ติดตามเป็นจำนวนมาก และได้รับการอนุมัติให้ทำฤดูกาลที่ 2 ต่อจากฤดูกาลแรก ในวันที่ 19 เมษายน 2554 สองวันหลังจากฉายตอนแรก



    General
    Complete name : Game.of.Thrones.S08E02.1080p.AMZN.WEB-DL.DDP5.1.H.264-vicvicky.mkv
    Format : Matroska
    Format version : Version 4 / Version 2
    File size : 3.08 GiB
    Duration : 59 min 11 s
    Overall bit rate : 7 449 kb/s
    Encoded date : UTC 2019-04-22 07:51:10
    Writing application : mkvmerge v8.9.0 ('Father Daughter') 64bit
    Writing library : libebml v1.3.3 + libmatroska v1.4.4

    Video
    ID : 1
    Format : AVC
    Format/Info : Advanced Video Codec
    Format profile : [email protected]
    Format settings, CABAC : Yes
    Format settings, RefFrames : 4 frames
    Codec ID : V_MPEG4/ISO/AVC
    Duration : 59 min 11 s
    Bit rate mode : Constant
    Bit rate : 6 716 kb/s
    Nominal bit rate : 10 000 kb/s
    Width : 1 920 pixels
    Height : 1 080 pixels
    Display aspect ratio : 16:9
    Frame rate mode : Constant
    Frame rate : 23.976 (24000/1001) FPS
    Color space : YUV
    Chroma subsampling : 4:2:0
    Bit depth : 8 bits
    Scan type : Progressive
    Bits/(Pixel*Frame) : 0.135
    Stream size : 2.78 GiB (90%)
    Default : Yes
    Forced : No
    Color range : Limited
    Color primaries : BT.709
    Transfer characteristics : BT.709
    Matrix coefficients : BT.709

    Audio
    ID : 2
    Format : E-AC-3
    Format/Info : Enhanced Audio Coding 3
    Format settings, Endianness : Big
    Codec ID : A_EAC3
    Duration : 59 min 11 s
    Bit rate mode : Constant
    Bit rate : 640 kb/s
    Channel(s) : 6 channels
    Channel positions : Front: L C R, Side: L R, LFE
    Sampling rate : 48.0 kHz
    Frame rate : 187.500 FPS (256 SPF)
    Compression mode : Lossy
    Delay relative to video : 24 ms
    Stream size : 271 MiB (9%)
    Title : 5.1
    Language : English
    Service kind : Complete Main
    Default : Yes
    Forced : No

    Text 1
    ID : 3
    Format : VobSub
    Codec ID : S_VOBSUB
    Codec ID/Info : Picture based subtitle format used on DVDs
    Duration : 54 min 44 s
    Bit rate : 2 204 b/s
    Count of elements : 728
    Stream size : 884 KiB (0%)
    Title : 480p
    Language : Thai
    Default : Yes
    Forced : No

    Text 2
    ID : 4
    Format : VobSub
    Codec ID : S_VOBSUB
    Codec ID/Info : Picture based subtitle format used on DVDs
    Duration : 54 min 44 s
    Bit rate : 7 682 b/s
    Count of elements : 728
    Stream size : 3.01 MiB (0%)
    Title : Tahoma 1080p
    Language : Thai
    Default : No
    Forced : No

    Text 3
    ID : 5
    Format : VobSub
    Codec ID : S_VOBSUB
    Codec ID/Info : Picture based subtitle format used on DVDs
    Duration : 54 min 44 s
    Bit rate : 10.7 kb/s
    Count of elements : 728
    Stream size : 4.20 MiB (0%)
    Title : Angsna 1080p
    Language : Thai
    Default : No
    Forced : No

    Text 4
    ID : 6
    Format : PGS
    Codec ID : S_HDMV/PGS
    Codec ID/Info : Picture based subtitle format used on BDs/HD-DVDs
    Duration : 54 min 44 s
    Bit rate : 31.8 kb/s
    Count of elements : 1456
    Stream size : 12.5 MiB (0%)
    Title : Tahoma PGS
    Language : Thai
    Default : No
    Forced : No

    Text 5
    ID : 7
    Format : PGS
    Codec ID : S_HDMV/PGS
    Codec ID/Info : Picture based subtitle format used on BDs/HD-DVDs
    Duration : 54 min 44 s
    Bit rate : 45.1 kb/s
    Count of elements : 1456
    Stream size : 17.6 MiB (1%)
    Title : Angsna PGS
    Language : Thai
    Default : No
    Forced : No

    Text 6
    ID : 8
    Format : UTF-8
    Codec ID : S_TEXT/UTF8
    Codec ID/Info : UTF-8 Plain Text
    Duration : 59 min 2 s
    Bit rate : 55 b/s
    Count of elements : 864
    Stream size : 23.8 KiB (0%)
    Title : SDH
    Language : English
    Default : No
    Forced : No

    Menu
    00:00:00.000 : en:Previously On
    00:00:42.928 : en:Opening Credits
    00:02:36.928 : en:The fate of a Lannister
    00:08:08.928 : en:The faces of death
    00:10:51.928 : en:Jaime makes a round of apologies
    00:17:10.928 : en:What the North
    00:23:40.928 : en:The North plans for battle
    00:31:06.928 : en:Night's watch at Winterfell
    00:34:51.928 : en:Sharing one last drink
    00:38:50.928 : en:Seize the night
    00:44:36.928 : en:A knight of the Seven Kingdoms
    00:48:46.928 : en:Samwell passes on a gift to Jorah
    00:51:04.928 : en:How a song
    00:52:53.928 : en:Jon confides in Danny
    00:57:17.928 : en:End Credits
    00:58:38.928 : en:Next On
    00:59:10.928 : en:Inside the Episode














    Download: filecondo
    http://www.filecondo.com/dl.php?f=e6e0751HiPHa
    Download: cornfile
    http://cornfile.com/az6hyf0y1zop
    Download: mekafile
    http://www.mekafile.com/dl.php?f=t28e86bT7S99

    [Sub:Thai (สุนัขป่าโลกันตร์/HBO)/Eng]
    Download: filecondo
    http://www.filecondo.com/dl.php?f=636fa41HiSSy
    Download: cornfile
    http://cornfile.com/w3gv4rp95giu
    Download: mekafile
    http://www.mekafile.com/dl.php?f=u58492bT8bnK

  2. The Following 2 Users Say Thank You to Duckload.us For This Useful Post:

    kappa (04-29-2019), mahns8f2u (04-30-2019)

  3. #2
    Senior Member
    Join Date
    Dec 2013
    Posts
    257
    Thanks
    178
    Thanked 0 Times in 0 Posts
    ขอบคุณครับ

  4. #3
    Senior Member
    Join Date
    Jun 2014
    Posts
    678
    Thanks
    0
    Thanked 0 Times in 0 Posts
    ขอบคุณครับ

  5. #4
    Junior Member
    Join Date
    Apr 2019
    Posts
    1
    Thanks
    0
    Thanked 0 Times in 0 Posts
    ขอบคุณมากครับ

  6. #5
    Junior Member
    Join Date
    Dec 2017
    Posts
    2
    Thanks
    0
    Thanked 0 Times in 0 Posts
    ขอบคุณมากครับ ว่าแต่พอจะมี ep 1 ไหมครับ อยากได้ๆ ลิ้ง cornfile อื่นเสียหมดโหลดไม่ได้เลย
    Last edited by [email protected]; 04-28-2019 at 08:50 PM.

  7. #6
    Senior Member
    Join Date
    May 2014
    Posts
    402
    Thanks
    0
    Thanked 0 Times in 0 Posts
    ลงไวมาก รอชม ep.3 ต่อนะครับท่าน

+ Reply to Thread

Thread Information

Users Browsing this Thread

There are currently 1 users browsing this thread. (0 members and 1 guests)

     

Posting Permissions

  • You may not post new threads
  • You may not post replies
  • You may not post attachments
  • You may not edit your posts