+ Reply to Thread
Results 1 to 6 of 6
  1. #1
    Administrators Duckload.us's Avatar
    Join Date
    Dec 2010
    Posts
    102,922
    Thanks
    9
    Thanked 105,478 Times in 50,064 Posts

    Question [ฝรั่ง]-[* ใหม่!! พากย์ไทย *] Mother! (2017) : มารดา [เสียงไทยมาสเตอร์ + เสียงอังกฤษ DTS] [บรรยายไทย + อังกฤษ] [ซับไทย From Blu-Ray MASTER +ซับ PGS คมชัด]-Encode.DTS.1080p. [Modified]-[พากย์ไทย บรรยายไทย]





    Mother: มาเธอร์ (เจนนิเฟอร์ ลอว์เรนซ์) และฮิม (ฮาเวียร์ บาร์เด็ม) มีชีวิตที่ดูงดงามอยู่ในแดนสวรรค์สุดสันโดษ แต่แล้ว ความสัมพันธ์ของเขา
    และเธอต้องผ่านการทดสอบเมื่อ ผู้ชาย (เอ็ด แฮร์ริส) และผู้หญิง (มิเชลล์ ไฟฟ์เฟอร์) เดินทางมาถึงบ้านของพวกเขาโดยไม่ได้รับเชิญ
    การเปิดประตูให้กับเสียงเคาะประตูครั้งนั้น รบกวนชีวิตที่แสนเงียบสงบของพวกเขา และนับวันก็ยิ่งมีแขกเดินทางมาที่บ้านของพวกเขามากขึ ้นเรื่อยๆ
    มาเธอร์ถูกสถานการณ์บีบให้ต้องกลับไปเยี่ยมเยียนทุกส ิ่งที่เธอรู้เกี่ยวกับความรัก การอุทิศตน และการเสียสละ!!!

    Format : Matroska
    Format version : Version 4
    File size : 3.76 GiB
    Duration : 2 h 1 min
    Overall bit rate : 4 445 kb/s
    Movie name : {MINI Super-HQ}[email protected] ts


    Video
    ID : 1
    Format : AVC
    Format/Info : Advanced Video Codec
    Format profile : [email protected]
    Format settings : CABAC / 4 Ref Frames
    Format settings, CABAC : Yes
    Format settings, RefFrames : 4 frames
    Codec ID : V_MPEG4/ISO/AVC
    Duration : 2 h 1 min
    Bit rate : 3 333 kb/s
    Width : 1 920 pixels
    Height : 804 pixels
    Display aspect ratio : 2.40:1
    Frame rate mode : Constant
    Frame rate : 23.976 (24000/1001) FPS
    Color space : YUV
    Chroma subsampling : 4:2:0
    Bit depth : 8 bits
    Scan type : Progressive
    Bits/(Pixel*Frame) : 0.090
    Stream size : 2.82 GiB (75%)
    Title : {MINI Super-HQ}[email protected] ts
    Writing library : x264 core 130 r2273 b3065e6
    Encoding settings : cabac=1 / ref=3 / deblock=1:0:0 / analyse=0x3:0x113 / me=umh / subme=11 / psy=1 / psy_rd=1.00:0.00 / mixed_ref=1 / me_range=48 / chroma_me=1 / trellis=2 / 8x8dct=1 / cqm=0 / deadzone=21,11 / fast_pskip=1 / chroma_qp_offset=-2 / threads=10 / lookahead_threads=1 / sliced_threads=0 / nr=0 / decimate=1 / interlaced=0 / bluray_compat=0 / constrained_intra=0 / bframes=3 / b_pyramid=2 / b_adapt=1 / b_bias=0 / direct=1 / weightb=1 / open_gop=0 / weightp=2 / keyint=240 / keyint_min=24 / scenecut=40 / intra_refresh=0 / rc_lookahead=40 / rc=2pass / mbtree=1 / bitrate=3333 / ratetol=1.0 / qcomp=0.60 / qpmin=0 / qpmax=69 / qpstep=4 / cplxblur=20.0 / qblur=0.5 / ip_ratio=1.40 / aq=1:1.00
    Language : English
    Default : Yes
    Forced : No
    Color range : Limited
    Color primaries : BT.709
    Transfer characteristics : BT.709
    Matrix coefficients : BT.709

    Audio 1
    ID : 2
    Format : AC-3
    Format/Info : Audio Coding 3
    Commercial name : Dolby Digital
    Codec ID : A_AC3
    Duration : 2 h 1 min
    Bit rate mode : Constant
    Bit rate : 320 kb/s
    Channel(s) : 2 channels
    Channel layout : L R
    Sampling rate : 48.0 kHz
    Frame rate : 31.250 FPS (1536 SPF)
    Bit depth : 16 bits
    Compression mode : Lossy
    Stream size : 277 MiB (7%)
    Language : Thai
    Service kind : Complete Main
    Default : Yes
    Forced : No

    Audio 2
    ID : 3
    Format : DTS
    Format/Info : Digital Theater Systems
    Codec ID : A_DTS
    Duration : 2 h 1 min
    Bit rate mode : Constant
    Bit rate : 755 kb/s
    Channel(s) : 6 channels
    Channel layout : C L R Ls Rs LFE
    Sampling rate : 48.0 kHz
    Frame rate : 93.750 FPS (512 SPF)
    Bit depth : 24 bits
    Compression mode : Lossy
    Stream size : 654 MiB (17%)
    Title : English DTS
    Language : English
    Default : No
    Forced : No

    Text 1
    ID : 4
    Format : VobSub
    Muxing mode : zlib
    Codec ID : S_VOBSUB
    Codec ID/Info : Picture based subtitle format used on DVDs
    Duration : 19 s 975 ms
    Bit rate : 9 242 b/s
    Count of elements : 3
    Stream size : 22.5 KiB (0%)
    Language : Thai
    Default : Yes
    Forced : Yes

    Text 2
    ID : 5
    Format : VobSub
    Muxing mode : zlib
    Codec ID : S_VOBSUB
    Codec ID/Info : Picture based subtitle format used on DVDs
    Duration : 2 h 0 min
    Bit rate : 1 298 b/s
    Count of elements : 1162
    Stream size : 1.12 MiB (0%)
    Title : Thai 480p
    Language : Thai
    Default : No
    Forced : No

    Text 3
    ID : 6
    Format : VobSub
    Muxing mode : zlib
    Codec ID : S_VOBSUB
    Codec ID/Info : Picture based subtitle format used on DVDs
    Duration : 2 h 0 min
    Bit rate : 2 507 b/s
    Count of elements : 1162
    Stream size : 2.16 MiB (0%)
    Title : Thai 720p
    Language : Thai
    Default : No
    Forced : No

    Text 4
    ID : 7
    Format : VobSub
    Muxing mode : zlib
    Codec ID : S_VOBSUB
    Codec ID/Info : Picture based subtitle format used on DVDs
    Duration : 2 h 0 min
    Bit rate : 4 456 b/s
    Count of elements : 1162
    Stream size : 3.83 MiB (0%)
    Title : Thai 1080p
    Language : Thai
    Default : No
    Forced : No

    Text 5
    ID : 8
    Format : VobSub
    Muxing mode : zlib
    Codec ID : S_VOBSUB
    Codec ID/Info : Picture based subtitle format used on DVDs
    Duration : 2 h 0 min
    Bit rate : 4 456 b/s
    Count of elements : 1162
    Stream size : 3.83 MiB (0%)
    Title : Thai 1080p Yellow
    Language : Thai
    Default : No
    Forced : No

    Text 6
    ID : 9
    Format : VobSub
    Muxing mode : zlib
    Codec ID : S_VOBSUB
    Codec ID/Info : Picture based subtitle format used on DVDs
    Duration : 2 h 0 min
    Bit rate : 4 456 b/s
    Count of elements : 1162
    Stream size : 3.83 MiB (0%)
    Title : Thai 1080p Out
    Language : Thai
    Default : No
    Forced : No

    Text 7
    ID : 10
    Format : VobSub
    Muxing mode : zlib
    Codec ID : S_VOBSUB
    Codec ID/Info : Picture based subtitle format used on DVDs
    Duration : 2 h 0 min
    Bit rate : 6 206 b/s
    Count of elements : 1162
    Stream size : 5.33 MiB (0%)
    Title : Thai 1080p BIG
    Language : Thai
    Default : No
    Forced : No

    Text 8
    ID : 11
    Format : PGS
    Muxing mode : zlib
    Codec ID : S_HDMV/PGS
    Codec ID/Info : Picture based subtitle format used on BDs/HD-DVDs
    Duration : 2 h 0 min
    Bit rate : 17.9 kb/s
    Count of elements : 2324
    Stream size : 15.4 MiB (0%)
    Title : Thai PGS BluRay Master
    Language : Thai
    Default : No
    Forced : No

    Text 9
    ID : 12
    Format : PGS
    Muxing mode : zlib
    Codec ID : S_HDMV/PGS
    Codec ID/Info : Picture based subtitle format used on BDs/HD-DVDs
    Duration : 2 h 0 min
    Bit rate : 18.0 kb/s
    Count of elements : 2324
    Stream size : 15.4 MiB (0%)
    Title : Thai PGS Out
    Language : Thai
    Default : No
    Forced : No

    Text 10
    ID : 13
    Format : PGS
    Muxing mode : zlib
    Codec ID : S_HDMV/PGS
    Codec ID/Info : Picture based subtitle format used on BDs/HD-DVDs
    Duration : 1 h 54 min
    Bit rate : 24.3 kb/s
    Count of elements : 2533
    Stream size : 19.9 MiB (1%)
    Title : English
    Language : English
    Default : No
    Forced : No






    Credit : ไฟล์หนังต้นฉบับจากคุณเจน NongZEZA~ โมเสียงไทยเข้าไป


    Download: cornfile
    http://cornfile.com/qyvaioxobta0
    Download: mekafile
    http://www.mekafile.com/dl.php?f=qQ5b48bT8gXs

  2. The Following 7 Users Say Thank You to Duckload.us For This Useful Post:

    apichartdear (04-23-2019), bigbang06 (04-25-2019), gaszolineskywalker (05-16-2019), Jodz14 (04-25-2019), noi54 (04-24-2019), smakha (04-24-2019), Tatum03 (04-24-2019)

  3. #2
    Senior Member
    Join Date
    Dec 2013
    Posts
    232
    Thanks
    155
    Thanked 0 Times in 0 Posts
    ขอบคุณครับ

  4. #3
    Senior Member
    Join Date
    Oct 2013
    Location
    Thailand
    Posts
    1,087
    Thanks
    959
    Thanked 0 Times in 0 Posts
    ขอบคุณมาก

  5. #4
    Senior Member
    Join Date
    Jun 2014
    Posts
    541
    Thanks
    0
    Thanked 0 Times in 0 Posts
    ขอบคุณครับ

  6. #5
    Senior Member
    Join Date
    Jul 2012
    Posts
    6,003
    Thanks
    0
    Thanked 0 Times in 0 Posts
    ขอบคุณมากจ้า

  7. #6
    Senior Member
    Join Date
    Oct 2012
    Posts
    584
    Thanks
    1,504
    Thanked 0 Times in 0 Posts
    ขอบคุณครับ

+ Reply to Thread

Thread Information

Users Browsing this Thread

There are currently 1 users browsing this thread. (0 members and 1 guests)

     

Posting Permissions

  • You may not post new threads
  • You may not post replies
  • You may not post attachments
  • You may not edit your posts