+ Reply to Thread
Results 1 to 4 of 4
  1. #1
    Administrators Duckload.us's Avatar
    Join Date
    Dec 2010
    Posts
    102,922
    Thanks
    9
    Thanked 105,478 Times in 50,064 Posts

    Question (**NEW*ҡ*)-Game Night (2018) ׹ǹ ǧ-{MINI Super-HQ}-[1080p.br.x264]=[Sound Eng DTS/Thai AC3:MASTER::Modifide]=[SUB:Eng/Tha][Ѻ From Blu-Ray MASTER +Ѻ PGS Ѵ]



    ***ͤз֡ѭ! $ҪҡҡԷԾ!***

    1080p سҾ٧!
    Ѻ From Blu-Ray Master

    Game Night (2018)
    R | 1h 40min | Action, Comedy, Crime | 23 February 2018 (USA)
    Directors: John Francis Daley, Jonathan Goldstein
    Writer: Mark Perez
    Stars: Jason Bateman, Rachel McAdams, Kyle Chandler

    ͧǢͧ͹ʹԷ˹觷Ҿ Ǿѹҧҧ ·ǡҡͧҡѧǢͧѺ ҪҡҡԷԾ
    ǡҨеͧҷҧͧǷ شŧ!


    {MINI Super-HQ}_Game.Night.2018.1080p.BrRip.DTS.x264.mkv
    Format : Matroska
    Format version : Version 4
    File size : 3.29 GiB
    Duration : 1 h 40 min
    Overall bit rate : 4 709 kb/s
    Movie name : {MINI Super-HQ}[email protected] CUP
    Video
    ID : 1
    Format : AVC
    Format/Info : Advanced Video Codec
    Format profile : [email protected]
    Format settings : CABAC / 5 Ref Frames
    Format settings, CABAC : Yes
    Format settings, ReFrames : 5 frames
    Codec ID : V_MPEG4/ISO/AVC
    Duration : 1 h 40 min
    Bit rate : 3 600 kb/s
    Width : 1 920 pixels
    Height : 800 pixels
    Display aspect ratio : 2.40:1
    Frame rate mode : Constant
    Frame rate : 23.976 (24000/1001) FPS
    Color space : YUV
    Chroma subsampling : 4:2:0
    Bit depth : 8 bits
    Scan type : Progressive
    Bits/(Pixel*Frame) : 0.098
    Stream size : 2.52 GiB (76%)
    Title : {MINI Super-HQ}[email protected] CUP
    Language : English
    Default : Yes
    Forced : No

    Audio 1
    ID : 2
    Format : AC-3
    Format/Info : Audio Coding 3
    Commercial name : Dolby Digital
    Codec ID : A_AC3
    Duration : 1 h 40 min
    Bit rate mode : Constant
    Bit rate : 256 kb/s
    Channel(s) : 6 channels
    Channel layout : L R C LFE Ls Rs
    Sampling rate : 44.1 kHz
    Frame rate : 28.711 FPS (1536 SPF)
    Bit depth : 16 bits
    Compression mode : Lossy
    Stream size : 183 MiB (5%)
    Title : AC3 5.1-Thai 256k 183m
    Language : Thai
    Service kind : Complete Main
    Default : Yes
    Forced : No

    Audio 2
    ID : 3
    Format : DTS
    Format/Info : Digital Theater Systems
    Codec ID : A_DTS
    Duration : 1 h 40 min
    Bit rate mode : Constant
    Bit rate : 755 kb/s
    Channel(s) : 6 channels
    Channel layout : C L R Ls Rs LFE
    Sampling rate : 48.0 kHz
    Frame rate : 93.750 FPS (512 SPF)
    Bit depth : 24 bits
    Compression mode : Lossy
    Stream size : 540 MiB (16%)
    Title : English DTS
    Language : English
    Default : No
    Forced : Yes

    Text 1
    ID : 4
    Format : VobSub
    Muxing mode : zlib
    Codec ID : S_VOBSUB
    Codec ID/Info : Picture based subtitle format used on DVDs
    Duration : 29 s 946 ms
    Bit rate : 3 254 b/s
    Count of elements : 1
    Stream size : 11.9 KiB (0%)
    Language : Thai
    Default : No
    Forced : Yes

    Text 2
    ID : 5
    Format : VobSub
    Muxing mode : zlib
    Codec ID : S_VOBSUB
    Codec ID/Info : Picture based subtitle format used on DVDs
    Duration : 1 h 39 min
    Bit rate : 4 016 b/s
    Count of elements : 2090
    Stream size : 2.85 MiB (0%)
    Title : Thai 480p
    Language : Thai
    Default : No
    Forced : No

    Text 3
    ID : 6
    Format : VobSub
    Muxing mode : zlib
    Codec ID : S_VOBSUB
    Codec ID/Info : Picture based subtitle format used on DVDs
    Duration : 1 h 39 min
    Bit rate : 7 666 b/s
    Count of elements : 2090
    Stream size : 5.44 MiB (0%)
    Title : Thai 720p
    Language : Thai
    Default : No
    Forced : No

    Text 4
    ID : 7
    Format : VobSub
    Muxing mode : zlib
    Codec ID : S_VOBSUB
    Codec ID/Info : Picture based subtitle format used on DVDs
    Duration : 1 h 39 min
    Bit rate : 12.9 kb/s
    Count of elements : 2090
    Stream size : 9.14 MiB (0%)
    Title : Thai 1080p
    Language : Thai
    Default : No
    Forced : No

    Text 5
    ID : 8
    Format : VobSub
    Muxing mode : zlib
    Codec ID : S_VOBSUB
    Codec ID/Info : Picture based subtitle format used on DVDs
    Duration : 1 h 39 min
    Bit rate : 12.9 kb/s
    Count of elements : 2090
    Stream size : 9.14 MiB (0%)
    Title : Thai 1080p Yellow
    Language : Thai
    Default : No
    Forced : No

    Text 6
    ID : 9
    Format : VobSub
    Muxing mode : zlib
    Codec ID : S_VOBSUB
    Codec ID/Info : Picture based subtitle format used on DVDs
    Duration : 1 h 39 min
    Bit rate : 12.9 kb/s
    Count of elements : 2090
    Stream size : 9.14 MiB (0%)
    Title : Thai 1080p Out
    Language : Thai
    Default : No
    Forced : No

    Text 7
    ID : 10
    Format : VobSub
    Muxing mode : zlib
    Codec ID : S_VOBSUB
    Codec ID/Info : Picture based subtitle format used on DVDs
    Duration : 1 h 39 min
    Bit rate : 18.6 kb/s
    Count of elements : 2090
    Stream size : 13.2 MiB (0%)
    Title : Thai 1080p BIG
    Language : Thai
    Default : No
    Forced : No

    Text 8
    ID : 11
    Format : PGS
    Muxing mode : zlib
    Codec ID : S_HDMV/PGS
    Codec ID/Info : Picture based subtitle format used on BDs/HD-DVDs
    Duration : 1 h 39 min
    Bit rate : 51.3 kb/s
    Count of elements : 4180
    Stream size : 36.5 MiB (1%)
    Title : Thai PGS BluRay Master
    Language : Thai
    Default : Yes
    Forced : Yes

    Text 9
    ID : 12
    Format : PGS
    Muxing mode : zlib
    Codec ID : S_HDMV/PGS
    Codec ID/Info : Picture based subtitle format used on BDs/HD-DVDs
    Duration : 1 h 39 min
    Bit rate : 51.4 kb/s
    Count of elements : 4180
    Stream size : 36.5 MiB (1%)
    Title : Thai PGS Out
    Language : Thai
    Default : No
    Forced : No

    Text 10
    ID : 13
    Format : PGS
    Muxing mode : zlib
    Codec ID : S_HDMV/PGS
    Codec ID/Info : Picture based subtitle format used on BDs/HD-DVDs
    Duration : 1 h 39 min
    Bit rate : 60.5 kb/s
    Count of elements : 4412
    Stream size : 43.0 MiB (1%)
    Title : English
    Language : English
    Default : No
    Forced : No

    Menu
    00:00:00.000 : en:Chapter 1
    00:10:35.092 : en:Chapter 2
    00:18:37.116 : en:Chapter 3
    00:32:24.859 : en:Chapter 4
    00:42:40.307 : en:Chapter 5
    00:52:27.352 : en:Chapter 6
    01:02:01.300 : en:Chapter 7
    01:11:50.931 : en:Chapter 8
    01:22:36.743 : en:Chapter 9
    01:32:54.902 : en:Chapter 10
    01:40:05.499 : en:Chapter 11



    3.29 GB
    http://cornfile.com/5rgroc6rwmrt
    http://www.mekafile.com/dl.php?f=63d2b1bT8gCU

    2.81 GB
    http://cornfile.com/obrq5urrsgne
    http://www.mekafile.com/dl.php?f=85d700bT8gim

    7.7 GB
    http://cornfile.com/riba2owxnmoe
    http://www.mekafile.com/dl.php?f=O3c7ddbT8gTv

  2. The Following 8 Users Say Thank You to Duckload.us For This Useful Post:

    apichartdear (04-23-2019), bigbang06 (04-24-2019), gaszolineskywalker (05-16-2019), Jodz14 (04-25-2019), kappa (04-30-2019), noi54 (04-24-2019), sawara (04-24-2019), Tellmon (04-24-2019)

  3. #2
    Senior Member
    Join Date
    Dec 2013
    Posts
    232
    Thanks
    155
    Thanked 0 Times in 0 Posts
    ͺسѺ

  4. #3
    Senior Member
    Join Date
    Jun 2014
    Posts
    541
    Thanks
    0
    Thanked 0 Times in 0 Posts
    ͺسѺ

  5. #4
    Senior Member
    Join Date
    Oct 2012
    Posts
    584
    Thanks
    1,504
    Thanked 0 Times in 0 Posts
    ͺسѺ

Thread Information

Users Browsing this Thread

There are currently 1 users browsing this thread. (0 members and 1 guests)

     

Posting Permissions

  • You may not post new threads
  • You may not post replies
  • You may not post attachments
  • You may not edit your posts