+ Reply to Thread
Results 1 to 5 of 5
  1. #1
    Administrators Duckload.us's Avatar
    Join Date
    Dec 2010
    Posts
    102,922
    Thanks
    9
    Thanked 105,478 Times in 50,064 Posts

    Question (*ฝรั่ง*NEW!*พากย์ไทยมาสเตอร์*)-Inconceivable (2017) สวยอำมหิต จิตวิปลาส-{Super HQ}-[1080p.br.x264]=[Sound Eng DTS/Thai AC3:MASTER::Modifide]=[SUB:Eng/Thai]



    *** ภาพยนต์แนว Drama, Thriller ระทึกขวัญสั่นประสาทลึกลับซับซ้อน ***
    จากผลงานของ
    Nicolas Cage,Gina Gershon, Nicky Whelan,Faye Dunaway
    ••• ไฟล์เล็ก 1080p คุณภาพสูง! •••

    Inconceivable (2017)
    R | 1h 45min | Drama, Thriller | 30 June 2017 (USA)
    Director: Jonathan Baker
    Writer: Chloe King
    Stars: Gina Gershon, Nicky Whelan, Nicolas Cage

    เรื่องราวของครอบครัวหนึ่ง ผัว (ไบรอัน มอร์แกน) รวมทั้งเมีย (แองเจล่า มอร์แกน) ซึ่งต่างก็เป็นแพทย์ร่วมกันทั้งสอง รวมทั้งลูกสาววัย 4ขวบ (คอร่า) ซึ่งก็มีชีวิตธรรมดาสุขอย่างครอบครัวอื่นๆแม้กระนั้น ทั้งหมดทุกอย่างก็เริ่มแปรไป เมื่อวันหนึ่งมีหญิงสาวแสนงาม (เคธี่ เวลส์) แล้วก็ลูกหญิงวัย 4ขวบ (แมดดี้) ก้าวเข้ามาสู่ครอบครัวมอร์แกน แรกๆทุกๆอย่างมองแจ่มใส ครอบครัวสดชื่นเพิ่มขึ้นเรื่อยๆกว่าเดิม แม้กระนั้นพอเพียงเวลาผ่านไป… สหายใหม่ที่แสนดีแล้วก็อ่อนโยนเริ่มมีอะไรแปลกๆความน ่าสงสัย มีเยอะขึ้นเรื่อยๆทุกครั้ง แองเจล่าตึงตกลงใจที่จะค้นหาความลับของสหายใหม่ การค้นหาความจิงเกี่ยวกับต้นเหตุของ เคธี่ กลับสร้างความรู้สึกไม่ค่อยสบายใจให้เยอะขึ้นเรื่อยๆ

    Inconceivable.2017.1080p.BluRay.{Super HQ}[email protected] CUP.mkv
    Format : Matroska
    Format version : Version 4
    File size : 3.52 GiB
    Duration : 1 h 46 min
    Overall bit rate : 4 743 kb/s
    Movie name : Inconceivable.2017.1080p.BluRay [email protected] CUP

    Video
    ID : 1
    Format : AVC
    Format/Info : Advanced Video Codec
    Format profile : [email protected]
    Format settings : CABAC / 4 Ref Frames
    Format settings, CABAC : Yes
    Format settings, ReFrames : 4 frames
    Codec ID : V_MPEG4/ISO/AVC
    Duration : 1 h 46 min
    Bit rate : 2 500 kb/s
    Width : 1 920 pixels
    Height : 808 pixels
    Display aspect ratio : 2.40:1
    Frame rate mode : Constant
    Frame rate : 23.976 (23976/1000) FPS
    Color space : YUV
    Chroma subsampling : 4:2:0
    Bit depth : 8 bits
    Scan type : Progressive
    Bits/(Pixel*Frame) : 0.067
    Stream size : 1.85 GiB (53%)
    Title : Inconceivable.2017.1080p.BluRay {Super HQ}[email protected] CUP
    Writing library : x264 core 152 r2851M ba24899
    Language : English
    Default : Yes
    Forced : No

    Audio 1
    ID : 2
    Format : AC-3
    Format/Info : Audio Coding 3
    Commercial name : Dolby Digital
    Codec ID : A_AC3
    Duration : 1 h 46 min
    Bit rate mode : Constant
    Bit rate : 256 kb/s
    Channel(s) : 6 channels
    Channel layout : L R C LFE Ls Rs
    Sampling rate : 44.1 kHz
    Frame rate : 28.711 FPS (1536 SPF)
    Bit depth : 16 bits
    Compression mode : Lossy
    Delay relative to video : -43 ms
    Stream size : 194 MiB (5%)
    Title : 5.1 AC3-Thai 256k 194m
    Language : Thai
    Service kind : Complete Main
    Default : Yes
    Forced : No

    Audio 2
    ID : 3
    Format : DTS
    Format/Info : Digital Theater Systems
    Codec ID : A_DTS
    Duration : 1 h 46 min
    Bit rate mode : Constant
    Bit rate : 1 984 kb/s
    Channel(s) : 6 channels
    Channel layout : C L R Ls Rs LFE
    Sampling rate : 24.0 kHz
    Frame rate : 23.438 FPS (1024 SPF)
    Bit depth : 16 bits
    Compression mode : Lossy
    Delay relative to video : -43 ms
    Stream size : 1.47 GiB (42%)
    Title : dts 5.1-Eng 8000-502m
    Language : English
    Default : No
    Forced : No

    Text 1
    ID : 4
    Format : UTF-8
    Codec ID : S_TEXT/UTF8
    Codec ID/Info : UTF-8 Plain Text
    Duration : 1 h 36 min
    Bit rate : 118 b/s
    Count of elements : 995
    Stream size : 84.3 KiB (0%)
    Title : SRT
    Language : Thai
    Default : Yes
    Forced : No

    Text 2
    ID : 5
    Format : UTF-8
    Codec ID : S_TEXT/UTF8
    Codec ID/Info : UTF-8 Plain Text
    Duration : 1 h 36 min
    Bit rate : 52 b/s
    Count of elements : 1168
    Stream size : 37.2 KiB (0%)
    Title : SRT
    Language : English
    Default : No
    Forced : No



    3.5 GB
    http://cornfile.com/a6hgjjp9r1dz
    http://www.mekafile.com/dl.php?f=wF0d0abT8gpH

    2.2 GB
    http://cornfile.com/sttdn8bia4w1
    http://www.mekafile.com/dl.php?f=yM8a2bbT8haF

    7.3 GB
    http://cornfile.com/oy66zy21vzzj
    http://www.mekafile.com/dl.php?f=Gl197fbT8jWC

  2. The Following 5 Users Say Thank You to Duckload.us For This Useful Post:

    apichartdear (04-24-2019), gaszolineskywalker (05-16-2019), Jodz14 (04-25-2019), noi54 (04-24-2019), smakha (04-24-2019)

  3. #2
    Senior Member
    Join Date
    Dec 2013
    Posts
    232
    Thanks
    155
    Thanked 0 Times in 0 Posts
    ขอบคุณครับ

  4. #3
    Senior Member
    Join Date
    Jun 2014
    Posts
    541
    Thanks
    0
    Thanked 0 Times in 0 Posts
    ขอบคุณครับ

  5. #4
    Senior Member
    Join Date
    Jul 2012
    Posts
    6,003
    Thanks
    0
    Thanked 0 Times in 0 Posts
    ขอบคุณมากจ้า

  6. #5
    Senior Member
    Join Date
    Oct 2012
    Posts
    584
    Thanks
    1,504
    Thanked 0 Times in 0 Posts
    ขอบคุณครับ

+ Reply to Thread

Thread Information

Users Browsing this Thread

There are currently 1 users browsing this thread. (0 members and 1 guests)

     

Posting Permissions

  • You may not post new threads
  • You may not post replies
  • You may not post attachments
  • You may not edit your posts