1,000,000 yen no Onnatachi



Rating: 7.7/10 Year: 2017 Genres: Comedy / Drama / Mystery Runtime: 30 min Language: Japanese Director: Michihito Fujii / Hirotoshi Hara / Kenji Kuwajima Writers: Shunj没 Aono / Yoshitatsu Yamada / Yoshimiko Murooka Cast: Y么jir么 Noda / Rila Fukushima / Rena MatsuiPlot:

n/A

A frustrated writer has arranged his home for 5 mysterious women, who all pay him a million yen as rent. What is the story behind this unusual arrangement?
Screenshots:
https://imgur.com/a/Wq69Bek
.................................................. ......................
General
Unique ID : 328368855881510303009806507167058384959 (0xF7098A8E5A6C8E8A33AF3ABF1936583F)
Complete name : [DragsterPS] Million Yen Women S01E01 [1080p] [Japanese] [Multi-Subs] [5DAD4A0D].mkv
Format : Matroska
Format version : Version 4 / Version 2
File size : 709 MiB
Duration : 24 min 17 s
Overall bit rate mode : Variable
Overall bit rate : 4 082 kb/s
Encoded date : UTC 2018-05-15 14:22:01
Writing application : mkvmerge v21.0.0 ('Tardigrades Will Inherit The Earth') 32-bit
Writing library : libebml v1.3.5 + libmatroska v1.4.8
Video
ID : 1
Format : AVC
Format/Info : Advanced Video Codec
Format profile : [email protected]
Format settings : CABAC / 3 Ref Frames
Format settings, CABAC : Yes
Format settings, ReFrames : 3 frames
Codec ID : V_MPEG4/ISO/AVC
Duration : 24 min 16 s
Bit rate mode : Variable
Bit rate : 3 320 kb/s
Maximum bit rate : 4 980 kb/s
Width : 1 920 pixels
Height : 1 080 pixels
Display aspect ratio : 16:9
Frame rate mode : Constant
Frame rate : 29.970 (30000/1001) FPS
Color space : YUV
Chroma subsampling : 4:2:0
Bit depth : 8 bits
Scan type : Progressive
Bits/(Pixel*Frame) : 0.053
Stream size : 575 MiB (81%)
Writing library : x264 core 118
Encoding settings : cabac=1 / ref=3 / deblock=1:0:0 / analyse=0x1:0x111 / me=umh / subme=10 / psy=1 / psy_rd=1.00:0.00 / mixed_ref=1 / me_range=24 / chroma_me=1 / trellis=2 / 8x8dct=0 / cqm=0 / deadzone=21,11 / fast_pskip=1 / chroma_qp_offset=-2 / threads=8 / sliced_threads=0 / nr=0 / decimate=1 / interlaced=0 / bluray_compat=0 / constrained_intra=0 / bframes=2 / b_pyramid=0 / b_adapt=2 / b_bias=0 / direct=3 / weightb=1 / open_gop=0 / weightp=2 / keyint=60 / keyint_min=31 / scenecut=0 / intra_refresh=0 / rc_lookahead=0 / rc=2pass / mbtree=1 / bitrate=3320 / ratetol=1.0 / qcomp=0.50 / qpmin=6 / qpmax=51 / qpstep=4 / cplxblur=20.0 / qblur=0.5 / vbv_maxrate=4980 / vbv_bufsize=6640 / nal_hrd=vbr / ip_ratio=1.40 / aq=1:1.00
Default : Yes
Forced : No
Audio 1
ID : 2
Format : AC-3
Format/Info : Audio Coding 3
Codec ID : A_AC3
Duration : 24 min 17 s
Bit rate mode : Constant
Bit rate : 384 kb/s
Channel(s) : 6 channels
Channel positions : Front: L C R, Side: L R, LFE
Sampling rate : 48.0 kHz
Frame rate : 31.250 FPS (1536 SPF)
Bit depth : 16 bits
Compression mode : Lossy
Stream size : 66.7 MiB (9%)
Title : Japanese
Language : Japanese
Service kind : Complete Main
Default : No
Forced : No
Audio 2
ID : 3
Format : AC-3
Format/Info : Audio Coding 3
Codec ID : A_AC3
Duration : 24 min 17 s
Bit rate mode : Constant
Bit rate : 384 kb/s
Channel(s) : 6 channels
Channel positions : Front: L C R, Side: L R, LFE
Sampling rate : 48.0 kHz
Frame rate : 31.250 FPS (1536 SPF)
Bit depth : 16 bits
Compression mode : Lossy
Stream size : 66.7 MiB (9%)
Title : Japanese (Audio Des--cription)
Language : Japanese
Service kind : Complete Main
Default : No
Forced : No
Text 1
ID : 4
Format : UTF-8
Codec ID : S_TEXT/UTF8
Codec ID/Info : UTF-8 Plain Text
Duration : 23 min 45 s
Bit rate : 51 b/s
Count of elements : 366
Stream size : 8.97 KiB (0%)
Title : English [Full]
Language : English
Default : No
Forced : No
Text 2
ID : 5
Format : UTF-8
Codec ID : S_TEXT/UTF8
Codec ID/Info : UTF-8 Plain Text
Duration : 24 min 5 s
Bit rate : 50 b/s
Count of elements : 368
Stream size : 8.96 KiB (0%)
Title : Castilian [Full]
Language : Spanish
Default : No
Forced : No
Text 3
ID : 6
Format : UTF-8
Codec ID : S_TEXT/UTF8
Codec ID/Info : UTF-8 Plain Text
Duration : 24 min 6 s
Bit rate : 54 b/s
Count of elements : 369
Stream size : 9.66 KiB (0%)
Title : Spanish [Full]
Language : Spanish
Default : No
Forced : No
Text 4
ID : 7
Format : UTF-8
Codec ID : S_TEXT/UTF8
Codec ID/Info : UTF-8 Plain Text
Duration : 24 min 5 s
Bit rate : 53 b/s
Count of elements : 367
Stream size : 9.51 KiB (0%)
Title : French [Full]
Language : French
Default : No
Forced : No
Text 5
ID : 8
Format : UTF-8
Codec ID : S_TEXT/UTF8
Codec ID/Info : UTF-8 Plain Text
Duration : 24 min 5 s
Bit rate : 58 b/s
Count of elements : 368
Stream size : 10.2 KiB (0%)
Title : German [Full]
Language : German
Default : No
Forced : No
Text 6
ID : 9
Format : UTF-8
Codec ID : S_TEXT/UTF8
Codec ID/Info : UTF-8 Plain Text
Duration : 24 min 5 s
Bit rate : 51 b/s
Count of elements : 367
Stream size : 9.13 KiB (0%)
Title : Italian [Full]
Language : Italian
Default : No
Forced : No
Text 7
ID : 10
Format : UTF-8
Codec ID : S_TEXT/UTF8
Codec ID/Info : UTF-8 Plain Text
Duration : 24 min 6 s
Bit rate : 51 b/s
Count of elements : 369
Stream size : 9.16 KiB (0%)
Title : Portuguese [Full]
Language : Portuguese
Default : No
Forced : No
Text 8
ID : 11
Format : UTF-8
Codec ID : S_TEXT/UTF8
Codec ID/Info : UTF-8 Plain Text
Duration : 24 min 6 s
Bit rate : 49 b/s
Count of elements : 368
Stream size : 8.70 KiB (0%)
Title : Brazilian Portuguese [Full]
Language : Portuguese
Default : No
Forced : No
Text 9
ID : 12
Format : UTF-8
Codec ID : S_TEXT/UTF8
Codec ID/Info : UTF-8 Plain Text
Duration : 24 min 6 s
Bit rate : 49 b/s
Count of elements : 367
Stream size : 8.72 KiB (0%)
Title : Polish [Full]
Language : Polish
Default : No
Forced : No
Text 10
ID : 13
Format : UTF-8
Codec ID : S_TEXT/UTF8
Codec ID/Info : UTF-8 Plain Text
Duration : 24 min 5 s
Bit rate : 52 b/s
Count of elements : 368
Stream size : 9.26 KiB (0%)
Title : Turkish [Full]
Language : Turkish
Default : No
Forced : No
Text 11
ID : 14
Format : UTF-8
Codec ID : S_TEXT/UTF8
Codec ID/Info : UTF-8 Plain Text
Duration : 24 min 5 s
Bit rate : 49 b/s
Count of elements : 368
Stream size : 8.72 KiB (0%)
Title : Swedish [Full]
Language : Swedish
Default : No
Forced : No
Text 12
ID : 15
Format : UTF-8
Codec ID : S_TEXT/UTF8
Codec ID/Info : UTF-8 Plain Text
Duration : 24 min 5 s
Bit rate : 51 b/s
Count of elements : 367
Stream size : 9.12 KiB (0%)
Title : Danish [Full]
Language : Danish
Default : No
Forced : No
Text 13
ID : 16
Format : UTF-8
Codec ID : S_TEXT/UTF8
Codec ID/Info : UTF-8 Plain Text
Duration : 24 min 5 s
Bit rate : 55 b/s
Count of elements : 367
Stream size : 9.72 KiB (0%)
Title : Finnish [Full]
Language : Finnish
Default : No
Forced : No
Text 14
ID : 17
Format : UTF-8
Codec ID : S_TEXT/UTF8
Codec ID/Info : UTF-8 Plain Text
Duration : 24 min 6 s
Bit rate : 52 b/s
Count of elements : 369
Stream size : 9.35 KiB (0%)
Title : Dutch [Full]
Language : Dutch
Default : No
Forced : No
Text 15
ID : 18
Format : UTF-8
Codec ID : S_TEXT/UTF8
Codec ID/Info : UTF-8 Plain Text
Duration : 24 min 6 s
Bit rate : 52 b/s
Count of elements : 370
Stream size : 9.33 KiB (0%)
Title : Norwegian [Full]
Language : Norwegian
Default : No
Forced : No
Text 16
ID : 19
Format : UTF-8
Codec ID : S_TEXT/UTF8
Codec ID/Info : UTF-8 Plain Text
Duration : 23 min 45 s
Bit rate : 77 b/s
Count of elements : 366
Stream size : 13.6 KiB (0%)
Title : Bulgarian [Full]
Language : Bulgarian
Default : No
Forced : No
Text 17
ID : 20
Format : UTF-8
Codec ID : S_TEXT/UTF8
Codec ID/Info : UTF-8 Plain Text
Duration : 24 min 6 s
Bit rate : 96 b/s
Count of elements : 369
Stream size : 17.0 KiB (0%)
Title : Greek [Full]
Language : Greek
Default : No
Forced : No
Text 18
ID : 21
Format : UTF-8
Codec ID : S_TEXT/UTF8
Codec ID/Info : UTF-8 Plain Text
Duration : 24 min 5 s
Bit rate : 68 b/s
Count of elements : 369
Stream size : 12.1 KiB (0%)
Title : Hebrew [Full]
Language : Hebrew
Default : No
Forced : No
Text 19
ID : 22
Format : UTF-8
Codec ID : S_TEXT/UTF8
Codec ID/Info : UTF-8 Plain Text
Duration : 24 min 6 s
Bit rate : 73 b/s
Count of elements : 369
Stream size : 13.0 KiB (0%)
Title : Arabic [Full]
Language : Arabic
Default : No
Forced : No
Text 20
ID : 23
Format : UTF-8
Codec ID : S_TEXT/UTF8
Codec ID/Info : UTF-8 Plain Text
Duration : 24 min 5 s
Bit rate : 54 b/s
Count of elements : 368
Stream size : 9.53 KiB (0%)
Title : Romanian [Full]
Language : Romanian
Default : No
Forced : No
Text 21
ID : 24
Format : UTF-8
Codec ID : S_TEXT/UTF8
Codec ID/Info : UTF-8 Plain Text
Duration : 24 min 5 s
Bit rate : 131 b/s
Count of elements : 368
Stream size : 23.3 KiB (0%)
Title : Thai [Full]
Language : Thai
Default : No
Forced : No
Text 22
ID : 25
Format : UTF-8
Codec ID : S_TEXT/UTF8
Codec ID/Info : UTF-8 Plain Text
Duration : 24 min 5 s
Bit rate : 53 b/s
Count of elements : 373
Stream size : 9.49 KiB (0%)
Title : Korean [Full]
Language : Korean
Default : No
Forced : No
Text 23
ID : 26
Format : UTF-8
Codec ID : S_TEXT/UTF8
Codec ID/Info : UTF-8 Plain Text
Duration : 24 min 5 s
Bit rate : 46 b/s
Count of elements : 362
Stream size : 8.19 KiB (0%)
Title : Chinese (Simplified) [Full]
Language : Chinese
Default : No
Forced : No
Text 24
ID : 27
Format : UTF-8
Codec ID : S_TEXT/UTF8
Codec ID/Info : UTF-8 Plain Text
Duration : 24 min 5 s
Bit rate : 46 b/s
Count of elements : 362
Stream size : 8.27 KiB (0%)
Title : Chinese (Traditional) [Full]
Language : Chinese
Default : No
Forced : No
Text 25
ID : 28
Format : UTF-8
Codec ID : S_TEXT/UTF8
Codec ID/Info : UTF-8 Plain Text
Duration : 24 min 4 s
Bit rate : 73 b/s
Count of elements : 394
Stream size : 13.0 KiB (0%)
Title : Japanese [SDH]
Language : Japanese
Default : No
Forced : No


1
http://www.filecondo.com/dl.php?f=866dd51HjhUB
2
http://www.filecondo.com/dl.php?f=M2be091HjhVy
3
http://www.filecondo.com/dl.php?f=Nae15d1HjhWz
4
http://www.filecondo.com/dl.php?f=Pb441d1HjhXA
5
http://www.filecondo.com/dl.php?f=ce11ae1HjhYu
6
http://www.filecondo.com/dl.php?f=Fef91f1HjhZr
7
http://www.filecondo.com/dl.php?f=G6e2cc1Hji0p
8
http://www.filecondo.com/dl.php?f=70449e1Hji1m
9
http://www.filecondo.com/dl.php?f=Pb8e001Hji2o
10
http://www.filecondo.com/dl.php?f=l7d5b21Hji3j
11
http://www.filecondo.com/dl.php?f=za21771Hji4i
12
http://www.filecondo.com/dl.php?f=D4a88e1Hji5g