+ Reply to Thread
Results 1 to 2 of 2
  1. #1
    Administrators Duckload.us's Avatar
    Join Date
    Dec 2010
    Posts
    102,922
    Thanks
    9
    Thanked 105,478 Times in 50,064 Posts

    Question [ฝรั่ง]-[* ใหม่ร้อนๆ!! *] Arctic (2018) : อย่าตาย [เสียงอังกฤษ DTS] [บรรยายไทย + อังกฤษ] -Blu-ray.DTS.1080p. [Modified]-[Soundtrack บรรยายไทย (แปล)]







    Arctic



    Rating: 7.1/10 Year: 2018 Genres: Adventure / Drama Runtime: 98 min Language: English Director: Joe Penna Writers: Joe Penna / Ryan Morrison Cast: Mads Mikkelsen / Maria Thelma Smรกradรณttir Plot:

    A man stranded in the Arctic after an airplane crash must decide whether to remain in the relative safety of his makeshift camp or to embark on a deadly trek through the unknown in hopes of making it out alive. Written by Bleecker Street




    ผู้กำกับ : โจ เพนนา
    นักแสดงนำ : แมดส์ มิคเคลสัน, มาเรีย เธลม่า สมาราดอท

    เรื่องย่อ

    พบการแสดงที่หฤโหดที่สุดในชีวิตของ ‘แมดส์ มิคเคลเซน’ ในบทของชายที่ต้องรอความช่วยเหลืออย่างโดดเดี่ยวท่าม กลางสภาพแวดล้อม ที่ถูกปกคลุมด้วยน้ำแข็งตลอดทั้งปี ถึงแม้เขาจะพบกับช่วงเวลาของความหวัง ธรรมชาติอันโหดร้ายก็ได้ทำลายทางรอดของเขาอย่างไร้คว ามปราณี เขาจึงต้องตัดสินใจเลือกระหว่างการรออยู่ในสถานที่ปล อดภัยต่อไป หรือ การออกเดินสู่หนทางที่เต็มไปด้วยอันตรายเพื่อไขว่คว้ าความรอดด้วยตัวเองใน นรกแดนน้ำแข็งแห่งนี้


    Format : Matroska
    Format version : Version 4
    File size : 2.90 GiB
    Duration : 1 h 38 min
    Overall bit rate : 4 235 kb/s
    Movie name : Arctic.2018.1080p.BluRay.DTS.264
    Encoded date : UTC 2019-04-24 10:46:02
    Writing application : mkvmerge v33.1.0 ('Primrose') 64-bit
    Writing library : libebml v1.3.7 + libmatroska v1.5.0
    Cover : Yes
    Attachments : cover_land.jpg / small_cover.jpg / small_cover_land.jpg / cover.jpg

    Video
    ID : 1
    Format : AVC
    Format/Info : Advanced Video Codec
    Format profile : [email protected]
    Format settings : CABAC / 4 Ref Frames
    Format settings, CABAC : Yes
    Format settings, RefFrames : 4 frames
    Codec ID : V_MPEG4/ISO/AVC
    Duration : 1 h 38 min
    Bit rate : 2 500 kb/s
    Width : 1 920 pixels
    Height : 804 pixels
    Display aspect ratio : 2.40:1
    Frame rate mode : Constant
    Frame rate : 23.976 (23976/1000) FPS
    Color space : YUV
    Chroma subsampling : 4:2:0
    Bit depth : 8 bits
    Scan type : Progressive
    Bits/(Pixel*Frame) : 0.068
    Stream size : 1.71 GiB (59%)
    Title : Arctic.2018.1080p.BluRay.DTS.264
    Writing library : x264 core 152 r2851M ba24899
    Encoding settings : cabac=1 / ref=4 / deblock=1:-1:-1 / analyse=0x3:0x113 / me=umh / subme=9 / psy=1 / psy_rd=1.00:0.15 / mixed_ref=1 / me_range=24 / chroma_me=1 / trellis=2 / 8x8dct=1 / cqm=0 / deadzone=21,11 / fast_pskip=1 / chroma_qp_offset=-3 / threads=32 / lookahead_threads=4 / sliced_threads=0 / nr=0 / decimate=1 / interlaced=0 / bluray_compat=0 / constrained_intra=0 / bframes=3 / b_pyramid=2 / b_adapt=2 / b_bias=0 / direct=3 / weightb=1 / open_gop=0 / weightp=2 / keyint=250 / keyint_min=25 / scenecut=40 / intra_refresh=0 / rc_lookahead=50 / rc=2pass / mbtree=1 / bitrate=2500 / ratetol=1.0 / qcomp=0.60 / qpmin=0 / qpmax=69 / qpstep=4 / cplxblur=20.0 / qblur=0.5 / vbv_maxrate=31250 / vbv_bufsize=31250 / nal_hrd=none / filler=0 / ip_ratio=1.40 / aq=3:1.00
    Default : Yes
    Forced : No

    Audio 1
    ID : 2
    Format : DTS
    Format/Info : Digital Theater Systems
    Codec ID : A_DTS
    Duration : 1 h 38 min
    Bit rate mode : Constant
    Bit rate : 1 509 kb/s
    Channel(s) : 6 channels
    Channel layout : C L R Ls Rs LFE
    Sampling rate : 48.0 kHz
    Frame rate : 93.750 FPS (512 SPF)
    Bit depth : 24 bits
    Compression mode : Lossy
    Delay relative to video : -43 ms
    Stream size : 1.03 GiB (36%)
    Language : English
    Default : Yes
    Forced : No

    Audio 2
    ID : 3
    Format : AAC LC
    Format/Info : Advanced Audio Codec Low Complexity
    Codec ID : A_AAC-2
    Duration : 1 h 38 min
    Bit rate : 224 kb/s
    Channel(s) : 6 channels
    Channel layout : C L R Ls Rs LFE
    Sampling rate : 48.0 kHz
    Frame rate : 46.875 FPS (1024 SPF)
    Compression mode : Lossy
    Delay relative to video : -43 ms
    Stream size : 157 MiB (5%)
    Language : English
    Default : No
    Forced : No

    Text 1
    ID : 4
    Format : UTF-8
    Codec ID : S_TEXT/UTF8
    Codec ID/Info : UTF-8 Plain Text
    Duration : 1 h 38 min
    Bit rate : 6 b/s
    Count of elements : 129
    Stream size : 4.33 KiB (0%)
    Language : Thai
    Default : Yes
    Forced : No

    Text 2
    ID : 5
    Format : UTF-8
    Codec ID : S_TEXT/UTF8
    Codec ID/Info : UTF-8 Plain Text
    Duration : 1 h 25 min
    Bit rate : 2 b/s
    Count of elements : 127
    Stream size : 1.87 KiB (0%)
    Language : English
    Default : No
    Forced : No

    Text 3
    ID : 6
    Format : UTF-8
    Codec ID : S_TEXT/UTF8
    Codec ID/Info : UTF-8 Plain Text
    Duration : 1 h 31 min
    Bit rate : 6 b/s
    Count of elements : 312
    Stream size : 4.54 KiB (0%)
    Title : SDH
    Language : English
    Default : No
    Forced : No

    Menu
    00:00:00.000 : en:00:00:00.000
    00:05:09.893 : en:00:05:09.893
    00:09:31.112 : en:00:09:31.112
    00:14:27.033 : en:00:14:27.033
    00:20:48.289 : en:00:20:48.289
    00:23:42.254 : en:00:23:42.254
    00:30:56.229 : en:00:30:56.229
    00:37:04.639 : en:00:37:04.639
    00:42:31.632 : en:00:42:31.632
    00:48:00.127 : en:00:48:00.127
    00:50:30.819 : en:00:50:30.819
    00:56:30.095 : en:00:56:30.095
    01:02:47.430 : en:01:02:47.430
    01:06:19.684 : en:01:06:19.684
    01:10:20.258 : en:01:10:20.258
    01:13:42.501 : en:01:13:42.501
    01:18:53.270 : en:01:18:53.270
    01:22:54.928 : en:01:22:54.928
    01:26:28.725 : en:01:26:28.725
    01:32:47.645 : en:01:32:47.645





    Subthai by tre2004

    2.9 GB
    Download: cornfile
    http://cornfile.com/yo1e4nt86urf
    Download: mekafile
    http://www.mekafile.com/dl.php?f=qW6689bTd510


    9.6 GB
    Download: cornfile
    http://cornfile.com/i3ztgcnnbbdm
    Download: mekafile
    http://www.mekafile.com/dl.php?f=r71743bTd4RR

  2. The Following 2 Users Say Thank You to Duckload.us For This Useful Post:

    bigbang06 (04-25-2019), Tatum03 (04-26-2019)

  3. #2
    Senior Member
    Join Date
    Oct 2013
    Location
    Thailand
    Posts
    1,087
    Thanks
    959
    Thanked 0 Times in 0 Posts
    ขอบคุณมาก

+ Reply to Thread

Thread Information

Users Browsing this Thread

There are currently 1 users browsing this thread. (0 members and 1 guests)

     

Posting Permissions

  • You may not post new threads
  • You may not post replies
  • You may not post attachments
  • You may not edit your posts