+ Reply to Thread
Results 1 to 6 of 6
  1. #1
    Administrators Duckload.us's Avatar
    Join Date
    Dec 2010
    Posts
    102,922
    Thanks
    9
    Thanked 105,478 Times in 50,064 Posts

    Question (^ฝรั่ง*ใหม่*พากย์ไทยมาสเตอร์^)-Escape Plan 2 Hades (2018) แหกคุกมหาประลัย2 (รวมทีมมหากาฬ ล่าล้างคุกนรก)-{Super HQ}-[1080p.br.x264]=[Sound Eng DTS-HD MA 5.1/Thai AC3:MASTER::Modifide]=[SUB:Eng]



    *** แหกคุกมหาประลัย 2
    รวมทีมมหากาฬ ล่าล้างคุกนรก ***
    จากผลงานของ
    Sylvester Stallone, Dave Bautista, Xiaoming Huang
    ••• ไฟล์ 1080p คุณภาพสูง! •••

    Escape Plan 2: Hades (2018)
    R | 1h 36min | Action, Crime, Mystery | 21 June 2018 (Thailand)
    Director: Steven C. Miller
    Writers: Miles Chapman, Miles Chapman (based on characters created by)
    Stars: Sylvester Stallone, Dave Bautista, Xiaoming Huang

    :การกลับมาอีกครั้งของ เรย์ เบรสลิน (ซิลเวสเตอร์ สตอลโลน) นักออกแบบเรือนจำตัวฉกาจ หลังจากที่เขาแหกคุกออกจากเรือนจำสุดไฮเทคมาได้ เขากลับต้องเจอกับอุปสรรคขึ้นอีกครั้ง ในครั้งนี้เขาได้ร่วมมือกับ เทรนท์ เดอโรซ่า (เดฟ เบาติสตาร์) เพื่อใช้ความสามารถของเขาในการแหกคุกอีกครั้ง

    Escape.Pl.an.2.2018.1080p.blu.ray.DTS-HD MA 5.1_{Super HQ_}@GOLD CUP.mkv
    Format : Matroska
    Format version : Version 4
    File size : 4.75 GiB
    Duration : 1 h 33 min
    Overall bit rate mode : Variable
    Overall bit rate : 7 264 kb/s
    Movie name : Escape.Pl.an.2.2018.1080p.blu.ray.DTS-HD MA 5.1_{Super HQ_}@GOLD CUP

    Video
    ID : 1
    Format : AVC
    Format/Info : Advanced Video Codec
    Format profile : [email protected]
    Format settings : CABAC / 5 Ref Frames
    Format settings, CABAC : Yes
    Format settings, ReFrames : 5 frames
    Codec ID : V_MPEG4/ISO/AVC
    Duration : 1 h 33 min
    Bit rate : 2 500 kb/s
    Width : 1 920 pixels
    Height : 804 pixels
    Display aspect ratio : 2.40:1
    Frame rate mode : Constant
    Frame rate : 23.976 (24000/1001) FPS
    Color space : YUV
    Chroma subsampling : 4:2:0
    Bit depth : 8 bits
    Scan type : Progressive
    Bits/(Pixel*Frame) : 0.068
    Stream size : 1.63 GiB (34%)
    Title : Escape.Pl.an.2.2018.1080p.blu.ray.DTS-HD MA 5.1_{Super HQ_}@GOLD CUP
    Writing library : x264 core 155 r2893 b00bcaf
    Language : English
    Default : Yes
    Forced : No
    Color range : Limited
    Color primaries : BT.709
    Transfer characteristics : BT.709
    Matrix coefficients : BT.709

    Audio 1
    ID : 2
    Format : AC-3
    Format/Info : Audio Coding 3
    Commercial name : Dolby Digital
    Codec ID : A_AC3
    Duration : 1 h 33 min
    Bit rate mode : Constant
    Bit rate : 640 kb/s
    Channel(s) : 6 channels
    Channel layout : L R C LFE Ls Rs
    Sampling rate : 44.1 kHz
    Frame rate : 28.711 FPS (1536 SPF)
    Bit depth : 16 bits
    Compression mode : Lossy
    Stream size : 429 MiB (9%)
    Title : 5.1 AC3-Thai 640k 428m
    Language : Thai
    Service kind : Complete Main
    Default : Yes
    Forced : No

    Audio 2
    ID : 3
    Format : DTS XLL
    Format/Info : Digital Theater Systems
    Commercial name : DTS-HD Master Audio
    Codec ID : A_DTS
    Duration : 1 h 33 min
    Bit rate mode : Variable
    Bit rate : 4 108 kb/s
    Channel(s) : 6 channels
    Channel layout : C L R Ls Rs LFE
    Sampling rate : 48.0 kHz
    Frame rate : 93.750 FPS (512 SPF)
    Bit depth : 24 bits
    Compression mode : Lossless
    Stream size : 2.69 GiB (57%)
    Language : English
    Default : No
    Forced : No

    Text 1
    ID : 4
    Format : PGS
    Muxing mode : zlib
    Codec ID : S_HDMV/PGS
    Codec ID/Info : Picture based subtitle format used on BDs/HD-DVDs
    Duration : 1 h 24 min
    Bit rate : 30.9 kb/s
    Count of elements : 1696
    Stream size : 18.7 MiB (0%)
    Language : English
    Default : Yes
    Forced : No

    Text 2
    ID : 5
    Format : UTF-8
    Codec ID : S_TEXT/UTF8
    Codec ID/Info : UTF-8 Plain Text
    Duration : 1 h 24 min
    Bit rate : 47 b/s
    Count of elements : 939
    Stream size : 29.7 KiB (0%)
    Title : SRT-Hearing Impaired=ผู้บกพร่องทางเสียง
    Language : English
    Default : No
    Forced : No

    Text 3
    ID : 6
    Format : UTF-8
    Codec ID : S_TEXT/UTF8
    Codec ID/Info : UTF-8 Plain Text
    Duration : 1 h 24 min
    Bit rate : 44 b/s
    Count of elements : 848
    Stream size : 27.3 KiB (0%)
    Title : SRT
    Language : English
    Default : No
    Forced : No

    Menu
    00:00:00.000 : en:00:00:00.000
    00:05:48.890 : en:00:05:48.890
    00:12:17.445 : en:00:12:17.445
    00:16:28.988 : en:00:16:28.988
    00:22:49.368 : en:00:22:49.368
    00:27:16.134 : en:00:27:16.134
    00:34:32.654 : en:00:34:32.654
    00:40:00.398 : en:00:40:00.398
    00:46:51.600 : en:00:46:51.600
    00:51:58.949 : en:00:51:58.949
    00:58:57.242 : en:00:58:57.242
    01:04:10.013 : en:01:04:10.013
    01:09:56.400 : en:01:09:56.400
    01:14:52.738 : en:01:14:52.738
    01:20:44.214 : en:01:20:44.214
    01:25:59.571 : en:01:25:59.571






    14.1 GB
    http://cornfile.com/s4u1ccady6iy
    http://www.mekafile.com/dl.php?f=Mpec0bbTdk5Q

    1.9 GB
    http://cornfile.com/9qwq3qc9vntd
    http://www.mekafile.com/dl.php?f=43af2ebTdeim

    4.8 GB
    http://cornfile.com/rawlnuit792k
    http://www.mekafile.com/dl.php?f=2vd60dbTdnOX

  2. The Following 8 Users Say Thank You to Duckload.us For This Useful Post:

    bigbang06 (04-25-2019), gaszolineskywalker (05-16-2019), Jodz14 (04-25-2019), Liquidman (04-28-2019), noi54 (05-03-2019), Posedon (04-27-2019), Tellmon (04-26-2019), Wesker_TOT (04-26-2019)

  3. #2
    Senior Member
    Join Date
    Oct 2013
    Posts
    1,488
    Thanks
    0
    Thanked 0 Times in 0 Posts
    ขอบคุณครับ

  4. #3
    Senior Member
    Join Date
    Dec 2013
    Posts
    1,574
    Thanks
    3,528
    Thanked 0 Times in 0 Posts
    ขอบคุณครับ...

  5. #4
    Senior Member Posedon's Avatar
    Join Date
    Apr 2011
    Posts
    886
    Thanks
    924
    Thanked 0 Times in 0 Posts
    Thank you very much

  6. #5
    Senior Member
    Join Date
    Jun 2014
    Posts
    541
    Thanks
    0
    Thanked 0 Times in 0 Posts
    ขอบคุณครับ

  7. #6
    Senior Member
    Join Date
    Oct 2012
    Posts
    584
    Thanks
    1,504
    Thanked 0 Times in 0 Posts
    ขอบคุณครับ

+ Reply to Thread

Thread Information

Users Browsing this Thread

There are currently 1 users browsing this thread. (0 members and 1 guests)

     

Posting Permissions

  • You may not post new threads
  • You may not post replies
  • You may not post attachments
  • You may not edit your posts