+ Reply to Thread
Results 1 to 2 of 2
  1. #1
    Administrators Duckload.us's Avatar
    Join Date
    Dec 2010
    Posts
    102,922
    Thanks
    9
    Thanked 105,478 Times in 50,064 Posts

    Question (*จีน*พากย์ไทยมาสเตอร์*)-Helios (Chek dou) (2015) ล่าคมถล่มเมือง-{Super HQ}-[1080p.br.x264]=[Sound Eng DTS/Thai AC3:MASTER::Modifide]=[SUB:Eng/Thai]



    *** ภาพยนตร์อาชญากรรมระทึกขวัญในฮ่องกงและจีนปี 2015 ***
    นำแสดงโดยนักแสดงจากฮ่องกงจีนไต้หวันและเกาหลีใต้
    ••• ไฟล์เล็ก 1080p คุณภาพสูง! •••

    Helios (Chek dou) (2015)
    1h 58min | Action, Crime, Fantasy | 1 May 2015 (Hong Kong)
    Directors: Lok Man Leung (as Longman Leung), Lok Man Leung
    Writers: Dean Kole, Lok Man Leung (screenplay) (as Longman Leung)
    Stars: Chen Chang, Si Won Choi, Nick Cheung
    Helios เป็นภาพยนตร์อาชญากรรมระทึกขวัญในฮ่องกงและจีนปี 2015 ที่กำกับโดย Longman Leung และ Sunny Luk และนำแสดงโดยนักแสดงจากฮ่องกงจีนไต้หวันและเกาหลีใต้ ภาพยนตร์เรื่องนี้เปิดตัวในวันที่ 30 เมษายน 2015 ในประเทศจีนและ 1 พฤษภาคม 2015 ในฮ่องกง

    :เมื่อนิวเคลียร์แบบเคลื่อนที่อานุภาพสูงที่เกาหลีแอ บพัฒนาในชื่อรหัส DC-8 ถูกขโมยไปอย่างโหดเหี้ยมโดยฝีมือของอาชญากรระดับโลก ฉายา “เฮลิออส” เพื่อทำการขายในตลาดมืดของฮ่องกง เจ้าหน้าที่ของเกาหลี จึงต้องเดินทางมาเพื่อร่วมมือกับตำรวจฮ่องกงที่จัดตั ้งหน่วยต่อต้านก่อการร้ายเฉพาะกิจขึ้น และทำลายการซื้อขายรวมทั้งยึด DC-8 กลับมา แต่ผู้ตรวจการมณฑลจากจีน กลับไม่ยอมส่งมอบ DC-8 คืนให้กับเกาหลีในทันที จนทำให้เกิดความขัดแย้งขึ้น ขณะเดียวกัน “เฮลิออส” ก็สร้างสถานการณ์บีบให้ตำรวจส่ง DC-8 คืนพร้อมกับปล่อยตัว “ผู้ส่งสาร” ผู้ช่วยคนสำคัญที่ถูกจับตัวเอาไว้ได้ และเพื่อไม่ให้มีเหตุการณ์บานปลาย ตำรวจจำต้องพึ่งพาสายข่าวใต้ดินเพื่อตามจับตัว “เฮลิออส” และหยุดเหตุก่อการร้ายก่อนทุกอย่างจะพินาศสิ้น

    Helios.2015.1080p.BluRay.x264.dts_{Super HQ}.27 .mkv
    Format : Matroska
    Format version : Version 4
    File size : 3.67 GiB
    Duration : 1 h 58 min
    Overall bit rate : 4 416 kb/s
    Movie name : Helios.2015.1080p.BluRay.x264.dts_{Super HQ}[email protected] CUP

    Video
    ID : 1
    Format : AVC
    Format/Info : Advanced Video Codec
    Format profile : [email protected]
    Format settings : CABAC / 4 Ref Frames
    Format settings, CABAC : Yes
    Format settings, ReFrames : 4 frames
    Codec ID : V_MPEG4/ISO/AVC
    Duration : 1 h 58 min
    Bit rate : 1 446 kb/s
    Width : 1 920 pixels
    Height : 816 pixels
    Display aspect ratio : 2.35:1
    Frame rate mode : Constant
    Frame rate : 24.000 FPS
    Color space : YUV
    Chroma subsampling : 4:2:0
    Bit depth : 8 bits
    Scan type : Progressive
    Bits/(Pixel*Frame) : 0.038
    Stream size : 1.20 GiB (33%)
    Title : Helios.2015.1080p.BluRay.x264.dts_{Super HQ}[email protected] CUP
    Writing library : x264 core 155 r2901 7d0ff22
    Language : Chinese
    Default : Yes
    Forced : No
    Color range : Limited
    Color primaries : BT.709
    Transfer characteristics : BT.709
    Matrix coefficients : BT.709

    Audio 1
    ID : 2
    Format : AC-3
    Format/Info : Audio Coding 3
    Commercial name : Dolby Digital
    Codec ID : A_AC3
    Duration : 1 h 58 min
    Bit rate mode : Constant
    Bit rate : 320 kb/s
    Channel(s) : 6 channels
    Channel layout : L R C LFE Ls Rs
    Sampling rate : 44.1 kHz
    Frame rate : 28.711 FPS (1536 SPF)
    Bit depth : 16 bits
    Compression mode : Lossy
    Delay relative to video : -5 ms
    Stream size : 272 MiB (7%)
    Title : 5.1 AC3-Thai 320k 272m
    Language : Thai
    Service kind : Complete Main
    Default : Yes
    Forced : No

    Audio 2
    ID : 3
    Format : DTS
    Format/Info : Digital Theater Systems
    Codec ID : A_DTS
    Duration : 1 h 58 min
    Bit rate mode : Constant
    Bit rate : 2 646 kb/s
    Channel(s) : 6 channels
    Channel layout : C L R Ls Rs LFE
    Sampling rate : 32.0 kHz
    Frame rate : 31.250 FPS (1024 SPF)
    Bit depth : 16 bits
    Compression mode : Lossy
    Delay relative to video : -5 ms
    Stream size : 2.20 GiB (60%)
    Title : dts 5.1-Chi 32000-2.19g
    Language : Chinese
    Default : No
    Forced : No

    Text 1
    ID : 4
    Format : VobSub
    Muxing mode : zlib
    Codec ID : S_VOBSUB
    Codec ID/Info : Picture based subtitle format used on DVDs
    Duration : 1 h 54 min
    Bit rate : 6 152 b/s
    Count of elements : 2035
    Stream size : 5.06 MiB (0%)
    Title : Thai 1080p
    Language : Thai
    Default : Yes
    Forced : No

    Text 2
    ID : 5
    Format : UTF-8
    Codec ID : S_TEXT/UTF8
    Codec ID/Info : UTF-8 Plain Text
    Duration : 1 h 51 min
    Bit rate : 34 b/s
    Count of elements : 1016
    Stream size : 28.7 KiB (0%)
    Title : SRT
    Language : English
    Default : No
    Forced : No

    Text 3
    ID : 6
    Format : VobSub
    Muxing mode : zlib
    Codec ID : S_VOBSUB
    Codec ID/Info : Picture based subtitle format used on DVDs
    Duration : 1 h 54 min
    Bit rate : 6 773 b/s
    Count of elements : 2033
    Stream size : 5.57 MiB (0%)
    Title : English
    Language : English
    Default : No
    Forced : No

    Menu
    00:00:00.000 : :00:00:00.000
    00:06:54.958 : :00:06:54.958
    00:12:32.208 : :00:12:32.208
    00:18:17.500 : :00:18:17.500
    00:23:26.792 : :00:23:26.750
    00:32:46.583 : :00:32:46.542
    00:39:35.750 : :00:39:35.708
    00:44:44.042 : :00:44:44.042
    00:51:48.750 : :00:51:48.708
    00:54:14.208 : :00:54:14.083
    01:00:17.917 : :01:00:17.875
    01:07:04.000 : :01:07:03.958
    01:12:50.750 : :01:12:50.708
    01:18:10.167 : :01:18:10.167
    01:23:27.750 : :01:23:27.625
    01:30:09.833 : :01:30:09.708
    01:36:10.917 : :01:36:10.792
    01:41:18.458 : :01:41:18.333
    01:49:25.583 : :01:49:25.500
    01:54:38.375 : :01:54:38.250






    2.0 GB
    http://cornfile.com/67mi6jrlz8hm
    http://www.mekafile.com/dl.php?f=Ajcb96bTddXV

    3.7 GB
    http://cornfile.com/cd93jrs9dgyf
    http://www.mekafile.com/dl.php?f=Nt2f5abTdecB

    9.6 GB
    http://cornfile.com/xf2m50ehma81
    http://www.mekafile.com/dl.php?f=GS83d2bTdkgG

  2. The Following 4 Users Say Thank You to Duckload.us For This Useful Post:

    apichartdear (04-26-2019), gaszolineskywalker (05-16-2019), jangska (04-25-2019), Jodz14 (04-25-2019)

  3. #2
    Senior Member
    Join Date
    Oct 2012
    Posts
    584
    Thanks
    1,504
    Thanked 0 Times in 0 Posts
    ขอบคุณครับ

+ Reply to Thread

Thread Information

Users Browsing this Thread

There are currently 1 users browsing this thread. (0 members and 1 guests)

     

Posting Permissions

  • You may not post new threads
  • You may not post replies
  • You may not post attachments
  • You may not edit your posts