+ Reply to Thread
Results 1 to 3 of 3
  1. #1
    Administrators Duckload.us's Avatar
    Join Date
    Dec 2010
    Posts
    102,922
    Thanks
    9
    Thanked 105,478 Times in 50,064 Posts

    Question [ฝรั่ง]-[* V2*] • Avengers: Endgame : อเวนเจอร์ส: เผด็จศึก • [720p] • [* HDCAM.WEB-DL.THR2.0.H264 *] [พากย์ไทยโรง 2.0 + เสียงอังกฤษ 2.0] • [บรรยายจีนฝัง]



    ••• 720p.HDCAM.WEB-DL.THR2.0.H264 •••
    พากย์ไทยโรง 2.0 + เสียงอังกฤษ 2.0 + บรรยายจีนฝัง

    Avengers Endgame เรื่องราวการปิดจักรวาลมาร์เวลเฟส 3 เหตุการณ์ภายหลังจากที่ธานอสดีดนิ้วล้างครึ่งจักรวาล เหล่าฮีโร่ที่เหลือรอดจะหาทางกอบกู้จักรวาลนี้คืนมาไ ด้อย่างไร โดยในภาคนี้จะมีตัวเด็ดอย่างกัปตันมาร์เวลมาร่วมเสริ มทัพด้วย!

    Format : Matroska
    Format version : Version 4
    File size : 2.99 GiB
    Duration : 2 h 53 min
    Overall bit rate : 2 472 kb/s
    Movie name : [email protected]tHts

    Video
    ID : 1
    Format : AVC
    Format/Info : Advanced Video Codec
    Format profile : [email protected]
    Format settings : CABAC / 4 Ref Frames
    Format settings, CABAC : Yes
    Format settings, ReFrames : 4 frames
    Codec ID : V_MPEG4/ISO/AVC
    Duration : 2 h 53 min
    Bit rate : 2 116 kb/s
    Width : 1 280 pixels
    Height : 720 pixels
    Display aspect ratio : 2.529
    Frame rate mode : Constant
    Frame rate : 29.970 FPS
    Color space : YUV
    Chroma subsampling : 4:2:0
    Bit depth : 8 bits
    Scan type : Progressive
    Bits/(Pixel*Frame) : 0.077
    Stream size : 2.56 GiB (86%)
    Title : [email protected]tHts
    Writing library : x264 core 157 r2935 545de2f
    Encoding settings : cabac=1 / ref=1 / deblock=1:0:0 / analyse=0x1:0x111 / me=hex / subme=2 / psy=1 / psy_rd=1.00:0.00 / mixed_ref=0 / me_range=16 / chroma_me=1 / trellis=0 / 8x8dct=0 / cqm=0 / deadzone=21,11 / fast_pskip=1 / chroma_qp_offset=0 / threads=22 / lookahead_threads=5 / sliced_threads=0 / nr=0 / decimate=1 / interlaced=0 / bluray_compat=0 / constrained_intra=0 / bframes=3 / b_pyramid=2 / b_adapt=1 / b_bias=0 / direct=1 / weightb=1 / open_gop=0 / weightp=1 / keyint=300 / keyint_min=30 / scenecut=40 / intra_refresh=0 / rc_lookahead=10 / rc=crf / mbtree=1 / crf=23.0 / qcomp=0.60 / qpmin=0 / qpmax=69 / qpstep=4 / vbv_maxrate=14000 / vbv_bufsize=14000 / crf_max=0.0 / nal_hrd=none / filler=0 / ip_ratio=1.40 / aq=1:1.00
    Language : English
    Default : Yes
    Forced : No
    Color range : Limited
    Color primaries : BT.709
    Transfer characteristics : BT.709
    Matrix coefficients : BT.709

    Audio 1
    ID : 2
    Format : AC-3
    Format/Info : Audio Coding 3
    Commercial name : Dolby Digital
    Codec ID : A_AC3
    Duration : 2 h 53 min
    Bit rate mode : Constant
    Bit rate : 192 kb/s
    Channel(s) : 2 channels
    Channel layout : L R
    Sampling rate : 48.0 kHz
    Frame rate : 31.250 FPS (1536 SPF)
    Bit depth : 16 bits
    Compression mode : Lossy
    Delay relative to video : -21 ms
    Stream size : 238 MiB (8%)
    Title : ThaiRong 2.0 @ 192 kb/s By [email protected]
    Language : Thai
    Service kind : Complete Main
    Default : Yes
    Forced : No

    Audio 2
    ID : 3
    Format : AAC LC
    Format/Info : Advanced Audio Codec Low Complexity
    Codec ID : A_AAC-2
    Duration : 2 h 53 min
    Bit rate : 161 kb/s
    Channel(s) : 2 channels
    Channel layout : L R
    Sampling rate : 48.0 kHz
    Frame rate : 46.875 FPS (1024 SPF)
    Compression mode : Lossy
    Delay relative to video : -21 ms
    Stream size : 199 MiB (6%)
    Title : English 2.0 @ 161 kb/s
    Language : English
    Default : No
    Forced : No
















    Download: cornfile
    http://cornfile.com/nndidzbufn3m
    Download: mekafile
    http://www.mekafile.com/dl.php?f=dU913dbTdqqw

  2. The Following 3 Users Say Thank You to Duckload.us For This Useful Post:

    OppU (04-26-2019), Tellmon (04-26-2019), Wesker_TOT (04-26-2019)

  3. #2
    Senior Member
    Join Date
    Dec 2013
    Posts
    1,574
    Thanks
    3,528
    Thanked 0 Times in 0 Posts
    ขอบคุณครับ...

  4. #3
    Senior Member gozilla02's Avatar
    Join Date
    Jul 2012
    Posts
    210
    Thanks
    76
    Thanked 1 Time in 1 Post
    มาเร็วเคลมเร็ว พึ่งไปดูในโรง สนุกมาก
    http://rabbitfileloveav.blogspot.com/ โหลดหนัง AV 18+ใหม่ล่าสุด อัพเดตทุกวัน มีทุกแนว 1080P Cornfile 10000 เรื่อง

+ Reply to Thread

Thread Information

Users Browsing this Thread

There are currently 1 users browsing this thread. (0 members and 1 guests)

     

Posting Permissions

  • You may not post new threads
  • You may not post replies
  • You may not post attachments
  • You may not edit your posts