+ Reply to Thread
Results 1 to 3 of 3
  1. #1
    Administrators Duckload.us's Avatar
    Join Date
    Dec 2010
    Posts
    104,396
    Thanks
    9
    Thanked 107,598 Times in 50,749 Posts

    Question (^ع*!*ҡ^)-The Travelling Cat Chronicles [2018] СԹҧͧ-[720p.br.x264 .mkv]=[Sound Jpn/Thai AC3:MASTER::Modifide]=[HARD SUB:Thai]




    Tabineko ripôto



    Rating: 7.5/10 Year: 2018 Genres: Drama Runtime: 118 min Language: Japanese Director: Kôichirô Miki Writers: Hiro Arikawa / Emiko Hiramatsu / Hiro Arikawa Cast: Sôta Fukushi / Mitsuki Takahata / NanaPlot:

    Nana is the cutest girl. She is also smart and aware of her talents. She has paws and purrs. Her father Satoru cannot take of her anymore and must give her up. He searches for someone to take care of Nana and begins visiting people who may be good candidates. As Nana and her father take trips in their car Satoru meets old friends, meets new friends and his own story unfurls in the process. Written by aghaemi


    *** The Travelling Cat Chronicles [2018] СԹҧͧ ***
    ͧǹѡ::͡عҡ
    դآҡ
    720p سҾ٧!

    The Travelling Cat Chronicles-Tabineko rip&244 to (2018)
    1h 58min | Drama | 26 October 2018 (Japan)
    Director: K&244 ichir&244 Miki
    Writers: Hiro Arikawa (based on the novel by), Emiko Hiramatsu (screenplay)
    Stars: S&244 ta Fukushi, Mitsuki Takahata, Nana

    (⫵ ؤت) 繪˹ͺ 㨴 ѡѵ ˹觪 ҹ §ѧҡѹʺغѵ˵
    ˵ؼźҧҧö§ѹ ա Ҩ֧ҹҹ͡Թҧ͵Һҹҹ
    ҤҨö§ǵôͧ ҧ᷹ ҧԹҧ ͼ餹ҡ
    ֧͹ѡáͧ §鹤Ѻҫ͹ҹҹ͡
    Ҩ ҹҹд


    The Travelling Cat Chronicles [2018] 720p 18.mkv
    Format : Matroska
    Format version : Version 4
    File size : 923 MiB
    Duration : 1 h 54 min
    Overall bit rate : 1 129 kb/s
    Movie name : The Travelling Cat Chronicles [2018] - Hard Sub

    Video
    ID : 1
    Format : AVC
    Format/Info : Advanced Video Codec
    Format profile : [email protected]
    Format settings : CABAC / 5 Ref Frames
    Format settings, CABAC : Yes
    Format settings, ReFrames : 5 frames
    Codec ID : V_MPEG4/ISO/AVC
    Duration : 1 h 54 min
    Bit rate : 743 kb/s
    Width : 720 pixels
    Height : 388 pixels
    Display aspect ratio : 1.85:1
    Frame rate mode : Constant
    Frame rate : 25.000 FPS
    Color space : YUV
    Chroma subsampling : 4:2:0
    Bit depth : 8 bits
    Scan type : Progressive
    Bits/(Pixel*Frame) : 0.106
    Stream size : 607 MiB (66%)
    Title : The Travelling Cat Chronicles [2018] - Hard Sub
    Writing library : x264 core 155 r2901 7d0ff22
    Language : Japanese
    Default : Yes
    Forced : No
    Color range : Limited
    Color primaries : BT.601 PAL
    Transfer characteristics : BT.709
    Matrix coefficients : BT.601

    Audio 1
    ID : 2
    Format : AC-3
    Format/Info : Audio Coding 3
    Commercial name : Dolby Digital
    Codec ID : A_AC3
    Duration : 1 h 54 min
    Bit rate mode : Constant
    Bit rate : 192 kb/s
    Channel(s) : 6 channels
    Channel layout : L R C LFE Ls Rs
    Sampling rate : 44.1 kHz
    Frame rate : 28.711 FPS (1536 SPF)
    Bit depth : 16 bits
    Compression mode : Lossy
    Stream size : 157 MiB (17%)
    Title : 5.1 AC3-Thai 192k 156m
    Language : Thai
    Service kind : Complete Main
    Default : Yes
    Forced : No

    Audio 2
    ID : 3
    Format : AC-3
    Format/Info : Audio Coding 3
    Commercial name : Dolby Digital
    Codec ID : A_AC3
    Duration : 1 h 54 min
    Bit rate mode : Constant
    Bit rate : 192 kb/s
    Channel(s) : 6 channels
    Channel layout : L R C LFE Ls Rs
    Sampling rate : 44.1 kHz
    Frame rate : 28.711 FPS (1536 SPF)
    Bit depth : 16 bits
    Compression mode : Lossy
    Stream size : 157 MiB (17%)
    Title : 5.1 AC3-192k 156m
    Language : Japanese
    Service kind : Complete Main
    Default : No
    Forced : No







    Download: cornfile
    http://cornfile.com/06wbjbdvm603
    Download: mekafile
    http://www.mekafile.com/dl.php?f=RAcdbcbTdt8Y

  2. The Following 4 Users Say Thank You to Duckload.us For This Useful Post:

    apichartdear (04-26-2019), gaszolineskywalker (05-16-2019), smakha (04-26-2019), Tatum03 (04-25-2019)

  3. #2
    Senior Member
    Join Date
    Oct 2013
    Location
    Thailand
    Posts
    1,112
    Thanks
    988
    Thanked 0 Times in 0 Posts
    ͺسҡ

  4. #3
    Senior Member
    Join Date
    Oct 2012
    Posts
    620
    Thanks
    1,558
    Thanked 0 Times in 0 Posts
    ͺسѺ

Thread Information

Users Browsing this Thread

There are currently 1 users browsing this thread. (0 members and 1 guests)

     

Posting Permissions

  • You may not post new threads
  • You may not post replies
  • You may not post attachments
  • You may not edit your posts