+ Reply to Thread
Results 1 to 2 of 2
  1. #1
    Administrators Duckload.us's Avatar
    Join Date
    Dec 2010
    Posts
    107,108
    Thanks
    9
    Thanked 111,556 Times in 51,850 Posts

    Question (^จีน*ใหม่*พากย์ไทยมาสเตอร์^)-Europe Raiders (2018) พยัคฆ์สำอาง กระแทกยุโรป-[720p.br.x264 .mkv]=[Sound Chi/Thai AC3:MASTER::Modifide]=[SUB:Eng]



    *** ปฏิบัติการครั้งนี้อันตรายและเสี่่ยงตายกว่าทุกครั้ง ***
    จากผลงานของ
    เหลียงเฉาเหว่ย, คริส วู, ถังเยียน (ฟงอวิ๋น ขี่พายุทะลุฟ้า 2), จีจ้า ญาณิน วิสมิตะนันทน์ (จีจ้า ดื้อสวยดุ, ช็อกโกแลต)
    ••• ไฟล์เล็ก 720p คุณภาพสูง! •••

    Ou Zhou gong lue (2018)
    13 | 1h 41min | Action, Comedy, Crime | 23 August 2018 (Hong Kong)
    Director: Jingle Ma
    Writer: Jingle Ma
    Stars: Tony Chiu-Wai Leung, Cung Le, JeeJa Yanin

    พบกับการกลับมาอีกครั้งของพยัคฆ์สำอางกับภารกิจเสี่ย งตายครั้งใหม่ที่รวมทีมนักแสดงระดับซูเปอร์สตาร์ฝั่ง เอเชีย
    อย่าง เหลียงเฉาเหว่ย (The Grandmaster), คริส วู (xXx: The Return of Xander Cage), ถังเยียน (ฟงอวิ๋น ขี่พายุทะลุฟ้า 2)
    และ จีจ้า ญาณิน วิสมิตะนันทน์ (จีจ้า ดื้อสวยดุ, ช็อกโกแลต) ที่จะมาระเบิดความมันส์กันอีกครั้งบนจอภาพยนตร์
    . เรื่องราวเริ่มต้นขึ้นเมื่อกลุ่มของพยัคฆ์สำอางที่นำ ทีมโดย หลินกุ้ยเหยิน (เหลียงเฉาเหว่ย)
    พร้อมสมาชิกทีมสุดยอดฝีมืออย่าง สายลับคู่ปรับ มิสหวาง (ถังเยียน), แฮกเกอร์ฝีมือระดับโลก ร็อคกี้ (คริส วู)
    และสาวนักสู้ผู้เต็มไปด้วยความลับ โซฟี (ตู้ จวน) ได้ถูกส่งไปยังยุโรป
    เพื่อปฏิบัติภารกิจตามล่าหาระบบสอดแนมที่สามารถสืบหา ข้อมูลได้ทั่วทั้งโลก หัตถ์เทวะ
    โดยมีเวลาเพียง 72 ชั่วโมง ก่อนที่หัตถ์เทวะ จะตกไปอยู่ในมือขององค์กรลึกลับที่หมายจะใช้มันเพื่อ เปิดโปงผู้คนทั่วโลก
    แต่ในเวลานั้นพวกเขาไม่มีทางรู้เลยว่าการเคลื่อนไหวท ั้งหมดของพวกเขาเองก็กำลังถูกระบบที่กำลังตามหานั้นจ ับตามองอยู่ด้วย
    การประจันหน้าที่ต้องใช้ทักษะเฉพาะตัวของสมาชิกชิงไห วพริบต่อกรกับกลุ่มอาชญากรในโลกมืดจึงเกิดขึ้น

    Europe.Raiders.2018.720p.BluRay.x264..mkv
    Format : Matroska
    Format version : Version 4
    File size : 980 MiB
    Duration : 1 h 39 min
    Overall bit rate : 1 371 kb/s
    Movie name : [email protected] CUP

    Video
    ID : 1
    Format : AVC
    Format/Info : Advanced Video Codec
    Format profile : [email protected]
    Format settings : CABAC / 5 Ref Frames
    Format settings, CABAC : Yes
    Format settings, ReFrames : 5 frames
    Codec ID : V_MPEG4/ISO/AVC
    Duration : 1 h 39 min
    Bit rate : 985 kb/s
    Width : 1 280 pixels
    Height : 544 pixels
    Display aspect ratio : 2.35:1
    Frame rate mode : Constant
    Frame rate : 24.000 FPS
    Color space : YUV
    Chroma subsampling : 4:2:0
    Bit depth : 8 bits
    Scan type : Progressive
    Bits/(Pixel*Frame) : 0.059
    Stream size : 704 MiB (72%)
    Title : [email protected] CUP
    Writing library : x264 core 155 r2901 7d0ff22
    Language : Chinese
    Default : Yes
    Forced : No

    Audio 1
    ID : 2
    Format : AC-3
    Format/Info : Audio Coding 3
    Commercial name : Dolby Digital
    Codec ID : A_AC3
    Duration : 1 h 39 min
    Bit rate mode : Constant
    Bit rate : 192 kb/s
    Channel(s) : 6 channels
    Channel layout : L R C LFE Ls Rs
    Sampling rate : 44.1 kHz
    Frame rate : 28.711 FPS (1536 SPF)
    Bit depth : 16 bits
    Compression mode : Lossy
    Stream size : 137 MiB (14%)
    Title : 5.1 AC3-Thai 192k 137m
    Language : Thai
    Service kind : Complete Main
    Default : Yes
    Forced : No

    Audio 2
    ID : 3
    Format : AC-3
    Format/Info : Audio Coding 3
    Commercial name : Dolby Digital
    Codec ID : A_AC3
    Duration : 1 h 39 min
    Bit rate mode : Constant
    Bit rate : 192 kb/s
    Channel(s) : 6 channels
    Channel layout : L R C LFE Ls Rs
    Sampling rate : 44.1 kHz
    Frame rate : 28.711 FPS (1536 SPF)
    Bit depth : 16 bits
    Compression mode : Lossy
    Stream size : 137 MiB (14%)
    Title : 5.1 AC3-Chi 192k 137m
    Language : Chinese
    Service kind : Complete Main
    Default : No
    Forced : No

    Text
    ID : 4
    Format : UTF-8
    Codec ID : S_TEXT/UTF8
    Codec ID/Info : UTF-8 Plain Text
    Duration : 1 h 31 min
    Bit rate : 47 b/s
    Count of elements : 1106
    Stream size : 31.6 KiB (0%)
    Title : SRT
    Language : English
    Default : Yes
    Forced : No

    Menu
    00:00:00.000 : :00:00:00.000
    00:07:11.375 : :00:07:11.167
    00:11:00.167 : :00:11:00.042
    00:15:18.625 : :00:15:18.542
    00:20:18.708 : :00:20:18.500
    00:24:12.583 : :00:24:12.375
    00:29:06.458 : :00:29:06.375
    00:37:01.417 : :00:37:01.333
    00:40:13.750 : :00:40:13.667
    00:45:32.833 : :00:45:32.833
    00:53:38.917 : :00:53:38.833
    00:58:05.917 : :00:58:05.833
    01:06:31.750 : :01:06:31.542
    01:11:00.667 : :01:11:00.458
    01:15:25.000 : :01:15:24.833
    01:24:56.625 : :01:24:56.542
    01:29:19.208 : :01:29:19.000
    01:33:54.542 : :01:33:54.542






    Download: cornfile
    http://cornfile.com/u7lr7x9gnitj
    Download: mekafile
    meka อัพไม่ได้ครับ หนังค่าย M

  2. The Following User Says Thank You to Duckload.us For This Useful Post:

    sawara (04-27-2019)

  3. #2
    Senior Member
    Join Date
    Dec 2013
    Posts
    261
    Thanks
    181
    Thanked 0 Times in 0 Posts
    ขอบคุณครับ

+ Reply to Thread

Thread Information

Users Browsing this Thread

There are currently 1 users browsing this thread. (0 members and 1 guests)

     

Posting Permissions

  • You may not post new threads
  • You may not post replies
  • You may not post attachments
  • You may not edit your posts