+ Reply to Thread
Results 1 to 6 of 6
  1. #1
    Administrators Duckload.us's Avatar
    Join Date
    Dec 2010
    Posts
    105,316
    Thanks
    9
    Thanked 108,923 Times in 51,129 Posts

    Cool [ฝรั่ง]-Game of Thrones Season 8 (Episode 03 : Battle of Winterfell) มหาศึกชิงบัลลังก์ ปี8 ตอน3 (มหาศึกแห่งวินเทอร์เฟล) Web-DL 1080p [เสียงอังกฤษ 5.1 + ซับไทยคมชัดจาก HBO]-WEB-DL.H.264.1080p. [From HD-TV]-[Soundtrack บรรยายไทย]







    มหาศึกชิงบัลลังก์ (อังกฤษ: Game of Thrones) เป็นภาพยนตร์ชุดทางโทรทัศน์แนวแฟนตาซีย้อนยุคของสถาน ีโทรทัศน์เอชบีโอ สร้างสรรค์โดยเดวิด เบนิออฟฟ์ และดี. บี. ไวส์ ดัดแปลงจากหนังสือเล่มที่หนึ่งของชุดหนังสือนิยายขาย ดีของจอร์จ อาร์. อาร์. มาร์ติน ชุด มหาศึกชิงบัลลังก์ เรื่อง เกมล่าบัลลังก์ ฉายครั้งแรกในสหรัฐอเมริกา 17 เมษายน 2554 ภาพยนตร์ชุดนี้ได้รับเสียงตอบรับอย่างดีมาก มีผู้ติดตามเป็นจำนวนมาก และได้รับการอนุมัติให้ทำฤดูกาลที่ 2 ต่อจากฤดูกาลแรก ในวันที่ 19 เมษายน 2554 สองวันหลังจากฉายตอนแรก



    Complete name : Game.of.Thrones.S08E03.1080p.AMZN.WEB-DL.DDP5.1.H.264-vicvicky.mkv
    Format : Matroska
    Format version : Version 4 / Version 2
    File size : 4.33 GiB
    Duration : 1 h 21 min
    Overall bit rate : 7 567 kb/s
    Encoded date : UTC 2019-04-29 04:43:01
    Writing application : mkvmerge v8.9.0 ('Father Daughter') 64bit
    Writing library : libebml v1.3.3 + libmatroska v1.4.4

    Video
    ID : 1
    Format : AVC
    Format/Info : Advanced Video Codec
    Format profile : [email protected]
    Format settings, CABAC : Yes
    Format settings, RefFrames : 4 frames
    Codec ID : V_MPEG4/ISO/AVC
    Duration : 1 h 21 min
    Bit rate mode : Constant
    Bit rate : 6 911 kb/s
    Nominal bit rate : 10 000 kb/s
    Width : 1 920 pixels
    Height : 1 080 pixels
    Display aspect ratio : 16:9
    Frame rate mode : Constant
    Frame rate : 23.976 (24000/1001) FPS
    Color space : YUV
    Chroma subsampling : 4:2:0
    Bit depth : 8 bits
    Scan type : Progressive
    Bits/(Pixel*Frame) : 0.139
    Stream size : 3.95 GiB (91%)
    Default : Yes
    Forced : No
    Color range : Limited
    Color primaries : BT.709
    Transfer characteristics : BT.709
    Matrix coefficients : BT.709

    Audio
    ID : 2
    Format : E-AC-3
    Format/Info : Enhanced Audio Coding 3
    Format settings, Endianness : Big
    Codec ID : A_EAC3
    Duration : 1 h 21 min
    Bit rate mode : Constant
    Bit rate : 640 kb/s
    Channel(s) : 6 channels
    Channel positions : Front: L C R, Side: L R, LFE
    Sampling rate : 48.0 kHz
    Frame rate : 187.500 FPS (256 SPF)
    Compression mode : Lossy
    Delay relative to video : 2 ms
    Stream size : 375 MiB (8%)
    Language : English
    Service kind : Complete Main
    Default : Yes
    Forced : No

    Text 1
    ID : 3
    Format : VobSub
    Codec ID : S_VOBSUB
    Codec ID/Info : Picture based subtitle format used on DVDs
    Duration : 1 h 19 min
    Bit rate : 329 b/s
    Count of elements : 208
    Stream size : 192 KiB (0%)
    Title : Thai 480p
    Language : Thai
    Default : Yes
    Forced : No

    Text 2
    ID : 4
    Format : VobSub
    Codec ID : S_VOBSUB
    Codec ID/Info : Picture based subtitle format used on DVDs
    Duration : 1 h 19 min
    Bit rate : 1 423 b/s
    Count of elements : 208
    Stream size : 829 KiB (0%)
    Title : Angsna 1080p
    Language : Thai
    Default : No
    Forced : No

    Text 3
    ID : 5
    Format : VobSub
    Codec ID : S_VOBSUB
    Codec ID/Info : Picture based subtitle format used on DVDs
    Duration : 1 h 19 min
    Bit rate : 1 135 b/s
    Count of elements : 208
    Stream size : 661 KiB (0%)
    Title : Tahoma 1080p
    Language : Thai
    Default : No
    Forced : No

    Text 4
    ID : 6
    Format : PGS
    Codec ID : S_HDMV/PGS
    Codec ID/Info : Picture based subtitle format used on BDs/HD-DVDs
    Duration : 1 h 19 min
    Bit rate : 5 929 b/s
    Count of elements : 416
    Stream size : 3.37 MiB (0%)
    Title : Angsna PGS
    Language : Thai
    Default : No
    Forced : No

    Text 5
    ID : 7
    Format : PGS
    Codec ID : S_HDMV/PGS
    Codec ID/Info : Picture based subtitle format used on BDs/HD-DVDs
    Duration : 1 h 19 min
    Bit rate : 4 780 b/s
    Count of elements : 416
    Stream size : 2.72 MiB (0%)
    Title : Tahoma PGS
    Language : Thai
    Default : No
    Forced : No

    Text 6
    ID : 8
    Format : UTF-8
    Codec ID : S_TEXT/UTF8
    Codec ID/Info : UTF-8 Plain Text
    Duration : 1 h 21 min
    Bit rate : 13 b/s
    Count of elements : 412
    Stream size : 7.87 KiB (0%)
    Title : SDH
    Language : English
    Default : No
    Forced : No

    Menu
    00:00:00.000 : en:Ratings
    00:00:03.890 : en:Studio Logo
    00:00:09.890 : en:Opening Credits
    00:01:56.890 : en:The calm before the storm
    00:06:57.890 : en:The Lord of Light enters the fight
    00:13:38.890 : en:The dead are already here
    00:20:07.890 : en:Silence in the crypts
    00:20:58.890 : en:A snowstorm complicates the battle plan
    00:29:42.890 : en:It's time to look the truth in the face
    00:33:13.890 : en:Man the wall
    00:44:05.890 : en:Wights infiltrate Winterfell
    00:49:52.890 : en :What do we say to the god of death?
    00:54:18.890 : en :Facing off with the Night King
    01:01:25.890 : en :The dead outnumber the living
    01:06:25.890 : en : Death has many faces
    01:17:27.890 : en : Dawn approaches
    01:19:57.890 : en :End Credits
    01:21:20.890 : en :Next Time








    1080p 4.33 GB
    http://cornfile.com/onqmrpm5tin7
    http://www.filecondo.com/dl.php?f=1014ce1Hl0Ww
    http://www.mekafile.com/dl.php?f=wKd7b9bTn6Q4

    720p 2.32 GB
    http://cornfile.com/k6vrz0hogohq
    http://www.filecondo.com/dl.php?f=q45a791Hl0JN
    http://www.mekafile.com/dl.php?f=fe38dcbTn4we

  2. The Following User Says Thank You to Duckload.us For This Useful Post:

    kappa (04-29-2019)

  3. #2
    Senior Member
    Join Date
    May 2014
    Posts
    403
    Thanks
    0
    Thanked 0 Times in 0 Posts
    ไวมากกกกกกกกกกกกกกกกกกกกกกกกกกกกกกกกกกกกกกกกกกกกกก กกก กราบงามๆ

  4. #3
    Junior Member
    Join Date
    Aug 2012
    Posts
    11
    Thanks
    0
    Thanked 0 Times in 0 Posts
    filecon โหลดไม่ได้

  5. #4
    Junior Member
    Join Date
    Feb 2016
    Posts
    7
    Thanks
    0
    Thanked 0 Times in 0 Posts
    file cando โหลดไม่ได้

  6. #5
    Junior Member
    Join Date
    Jan 2012
    Posts
    1
    Thanks
    0
    Thanked 0 Times in 0 Posts
    Filecondo โหลดไม่ได้อะครับ T-T

  7. #6
    Senior Member
    Join Date
    Jun 2014
    Posts
    759
    Thanks
    0
    Thanked 0 Times in 0 Posts
    ขอบคุณครับ

+ Reply to Thread

Thread Information

Users Browsing this Thread

There are currently 1 users browsing this thread. (0 members and 1 guests)

     

Posting Permissions

  • You may not post new threads
  • You may not post replies
  • You may not post attachments
  • You may not edit your posts