+ Reply to Thread
Results 1 to 4 of 4
  1. #1
    Administrators Duckload.us's Avatar
    Join Date
    Dec 2010
    Posts
    102,922
    Thanks
    9
    Thanked 105,478 Times in 50,064 Posts

    Question (^จีน*ใหม่ร้อนๆ!*พากย์ไทยมาสเตอร์^)-The Wandering Earth (2019) ปฏิบัติการฝ่าสุริยะ-{Full Screen-ภาพเต็มจอครับ}-[1080p.br.x264]=[Sound Chi/Eng/Thai AC3::Modifide]=[SUB:Eng/Thai] [เสียงไทย+ซับไทย From Master Netflix คมชัด]



    *** The Wandering Earth (2019) ปฏิบัติการฝ่าสุริยะ ***
    เจ้าแรกและเจ้าเดียวที่มีให้ดูแบบเต็มจอไม่มีแถบดำบน ล่าง ไม่เสียรายละเอียดของเฟรมเพราะเป็นการModifideที่อัต ราส่วนของภาพไม่ใช่การCropหรือZoom
    หนังฟอร์มยักษ์ทุนสูงจากจีนที่โกยรายได้ไปได้อย่างถล ่มทลาย
    ภาพยนตร์แนววิทยาศาสตร์จีนปี 2019
    ••• ไฟล์ 1080p คุณภาพสูง! •••
    [เสียงไทย + ซับไทย Master From Netflix]


    The Wandering Earth ชื่อไทย ปฏิบัติการฝ่าสุริยะ หนังฟอร์มยักษ์ทุนสูงจากจีนที่กวาดรายได้ไปถล่มทลาย เตรียมฉายบน Netflix ใน ไทย

    หนังฟอร์มยักษ์จากแดนมังกรที่กวาดรายได้ไปมหาศาล ถึงขั้น Netflix ทุ่มทุนซื้อสิทธิในการฉายแบบไม่ต้องคิดไปไม่นานมานี้ วันนี้อัพเดทล่าสุด The Wandering Earth เตรียมฉายพร้อมกันทั่วโลก รวมถึง ไทย ในวันที่ 30 เมษายน นี้

    เนื้อเรื่องนั้นกล่าวถึงการพยายามอพยพมนุษย์ออกไปหาโ ลกใหม่ หลังจากที่ดวงอาทิตย์กำลังขยายขนาดและกลืนกินกาแล็คซ ี่ของเราไปอย่างรวดเร็ว แต่อุปสรรคที่เกิดขึ้นจากการผิดปกตินี้ ทำให้แผนการที่จะแรงดึงดูดของดาวพฤหัสช่วยเหวี่ยงยาน เพื่อเพิ่มแรงส่งในการเดินทางหนีออกนอกระบบสุริยะผิด พลาด และโลกกำลังจะพุ่งชนกับดาวพฤหัส ทำให้ทีมนึงต้องรีบแก้ไขปัญหาก่อนที่จะสายไป

    The Wandering Earth.2019.1080p.x264[Full Screen][email protected] CUP_27-1.88g.mkv
    Format : Matroska
    Format version : Version 4
    File size : 3.54 GiB
    Duration : 2 h 5 min
    Overall bit rate : 4 042 kb/s
    Movie name : The Wandering Earth.2019.1080p.x264[Full Screen][email protected] CUP_27-1.88g

    Video
    ID : 1
    Format : AVC
    Format/Info : Advanced Video Codec
    Format profile : [email protected]
    Format settings : CABAC / 4 Ref Frames
    Format settings, CABAC : Yes
    Format settings, ReFrames : 4 frames
    Codec ID : V_MPEG4/ISO/AVC
    Duration : 2 h 5 min
    Bit rate : 2 149 kb/s
    Width : 1 920 pixels
    Height : 804 pixels
    Display aspect ratio : 2.552
    Original display aspect rat : 2.553
    Frame rate mode : Constant
    Frame rate : 24.000 FPS
    Color space : YUV
    Chroma subsampling : 4:2:0
    Bit depth : 8 bits
    Scan type : Progressive
    Bits/(Pixel*Frame) : 0.058
    Stream size : 1.88 GiB (53%)
    Title : The Wandering Earth.2019.1080p.x264[Full Screen][email protected] CUP_27-1.88g
    Writing library : x264 core 155 r2901 7d0ff22
    Default : Yes
    Forced : No
    Color range : Limited
    Color primaries : BT.709
    Transfer characteristics : BT.709
    Matrix coefficients : BT.709

    Audio 1
    ID : 2
    Format : AC-3
    Format/Info : Audio Coding 3
    Commercial name : Dolby Digital
    Codec ID : A_AC3
    Duration : 2 h 5 min
    Bit rate mode : Constant
    Bit rate : 448 kb/s
    Channel(s) : 6 channels
    Channel layout : L R C LFE Ls Rs
    Sampling rate : 48.0 kHz
    Frame rate : 31.250 FPS (1536 SPF)
    Bit depth : 16 bits
    Compression mode : Lossy
    Stream size : 402 MiB (11%)
    Title : Thai 5.1
    Language : Thai
    Service kind : Complete Main
    Default : Yes
    Forced : No

    Audio 2
    ID : 3
    Format : E-AC-3 JOC
    Format/Info : Enhanced AC-3 with Joint Object Coding
    Commercial name : Dolby Digital Plus with Dolby Atmos
    Codec ID : A_EAC3
    Duration : 2 h 5 min
    Bit rate mode : Constant
    Bit rate : 768 kb/s
    Channel(s) : 6 channels
    Channel layout : L R C LFE Ls Rs
    Sampling rate : 48.0 kHz
    Frame rate : 31.250 FPS (1536 SPF)
    Compression mode : Lossy
    Stream size : 689 MiB (19%)
    Title : Mandarin DDP 5.1 Atmos
    Language : Chinese
    Service kind : Complete Main
    Default : No
    Forced : No
    Complexity index : 16
    Number of dynamic objects : 15
    Bed channel count : 1 channel
    Bed channel configuration : LFE

    Audio 3
    ID : 4
    Format : AC-3
    Format/Info : Audio Coding 3
    Commercial name : Dolby Digital
    Codec ID : A_AC3
    Duration : 2 h 5 min
    Bit rate mode : Constant
    Bit rate : 640 kb/s
    Channel(s) : 6 channels
    Channel layout : L R C LFE Ls Rs
    Sampling rate : 44.1 kHz
    Frame rate : 28.711 FPS (1536 SPF)
    Bit depth : 16 bits
    Compression mode : Lossy
    Stream size : 575 MiB (16%)
    Title : AC3 5.1-Eng 640k 574m
    Language : English
    Service kind : Complete Main
    Default : No
    Forced : No

    Text 1
    ID : 5
    Format : UTF-8
    Codec ID : S_TEXT/UTF8
    Codec ID/Info : UTF-8 Plain Text
    Duration : 1 h 59 min
    Bit rate : 151 b/s
    Count of elements : 1805
    Stream size : 133 KiB (0%)
    Language : Thai
    Default : Yes
    Forced : No

    Text 2
    ID : 6
    Format : UTF-8
    Codec ID : S_TEXT/UTF8
    Codec ID/Info : UTF-8 Plain Text
    Duration : 1 h 58 min
    Bit rate : 80 b/s
    Count of elements : 2244
    Stream size : 69.7 KiB (0%)
    Title : SDH
    Language : English
    Default : No
    Forced : No

    Text 3
    ID : 7
    Format : UTF-8
    Codec ID : S_TEXT/UTF8
    Codec ID/Info : UTF-8 Plain Text
    Duration : 1 h 58 min
    Bit rate : 59 b/s
    Count of elements : 1653
    Stream size : 51.6 KiB (0%)
    Language : English
    Default : No
    Forced : No

    Text 4
    ID : 8
    Format : PGS
    Muxing mode : zlib
    Codec ID : S_HDMV/PGS
    Codec ID/Info : Picture based subtitle format used on BDs/HD-DVDs
    Duration : 2 h 4 min
    Bit rate : 56.8 kb/s
    Count of elements : 3612
    Stream size : 50.5 MiB (1%)
    Title : Thai_PGS
    Language : Thai
    Default : No
    Forced : No





    3.5 GB
    Download: cornfile
    http://cornfile.com/pj9xs4724y5t
    Download: mekafile
    http://www.mekafile.com/dl.php?f=418b94bTuYlX

    2.9 GB
    Download: cornfile
    http://cornfile.com/iybtk67qvhpo
    Download: mekafile
    http://www.mekafile.com/dl.php?f=X73889bTuYz3

  2. The Following 7 Users Say Thank You to Duckload.us For This Useful Post:

    bigbang06 (05-03-2019), gaszolineskywalker (05-16-2019), noi54 (05-03-2019), Posedon (05-04-2019), roc_dave (05-11-2019), sawara (05-04-2019), smakha (05-03-2019)

  3. #2
    Senior Member
    Join Date
    Dec 2013
    Posts
    232
    Thanks
    155
    Thanked 0 Times in 0 Posts
    ขอบคุณครับ

  4. #3
    Senior Member Posedon's Avatar
    Join Date
    Apr 2011
    Posts
    886
    Thanks
    924
    Thanked 0 Times in 0 Posts
    Thank you very much

  5. #4
    Senior Member
    Join Date
    Oct 2012
    Posts
    584
    Thanks
    1,504
    Thanked 0 Times in 0 Posts
    ขอบคุณครับ

+ Reply to Thread

Thread Information

Users Browsing this Thread

There are currently 1 users browsing this thread. (0 members and 1 guests)

     

Posting Permissions

  • You may not post new threads
  • You may not post replies
  • You may not post attachments
  • You may not edit your posts