Modified เสียง Eng DTS-HD + ซับไทย
ภาพ 4K HDR 2160P X265 Encoded




Synopsis

กลอเรีย (จีน่า รอดิเกซ) ขับรถไปยังติฮัวนา เม็กซิโก เพื่อเยี่ยมเยียนเพื่อนสนิทที่กำลังเข้าประกวด “มิสบาฮา” ในระหว่างที่ออกไปเที่ยวกลางคืน เพื่อนของเธอถูกจับตัวไป ส่วนกลอเรียพบว่าตัวเองตกเป็นเครื่องมือในเกมอันตราย ที่ซีไอเอ ปปส. และพ่อค้ายาเสพติดจอมโหดกำลังเล่นเจ้าล่อเอาเถิดกันอ ยู่ เมื่อได้พบว่าเธอมีพลังอำนาจบางอย่างที่ไม่เคยรู้มาก ่อน กลอเรียจึงยุยงให้แต่ละฝ่ายเล่นงานกันเอง ในขณะที่พยายามหาทางช่วยเหลือเพื่อนของเธอ การเอาตัวรอดจำเป็นต้องอาศัยความเจ้าเล่ห์ ความคิดสร้างสรรค์ และความเข้มแข็ง นี่คือหนังระทึกขวัญที่ทำให้คุณนั่งไม่ติดเก้าอี้ที่ ได้รับการกล่าวขวัญว่าเป็น “เรื่องราวของตัวละครที่มีความเป็นมาที่สุดยอดสำหรับ หนังแอ็กชันฮีโร่ แนวใหม่” (ปีเตอร์ เดบรูจ นิตยสารวาไรตี้)

Media Info

General
Unique ID : 26757689866290081418064841266532572018 (0x142157F73155C54E785B4C9E065DDB72)
Complete name : K:Miss.Bala.2019.MULTI.2160p.HDR.WEBRip.DTS-HD.MA.5.1.x265-GASMASK (1).mkv
Format : Matroska
Format version : Version 4
File size : 17.1 GiB
Duration : 1 h 43 min
Overall bit rate mode : Variable
Overall bit rate : 23.5 Mb/s
Movie name : Miss.Bala.2019.1080p.BluRay.x264.DTS-HD.MA.5.1-FGT
Encoded date : UTC 2019-04-29 15:26:53
Writing application : mkvmerge v32.0.0 ('Astral Progressions') 64-bit
Writing library : libebml v1.3.7 + libmatroska v1.5.0

Video
ID : 1
Format : HEVC
Format/Info : High Efficiency Video Coding
Commercial name : HDR10
Format profile : Main [email protected]@High
Codec ID : V_MPEGH/ISO/HEVC
Duration : 1 h 43 min
Bit rate : 21.3 Mb/s
Width : 3 840 pixels
Height : 1 600 pixels
Display aspect ratio : 2.40:1
Frame rate mode : Constant
Frame rate : 23.976 (24000/1001) FPS
Color space : YUV
Chroma subsampling : 4:2:0 (Type 2)
Bit depth : 10 bits
Bits/(Pixel*Frame) : 0.145
Stream size : 15.5 GiB (90%)
Writing library : x265 3.0_Au+16-0018ca1ca42f:[Windows][GCC 8.3.0][64 bit] 10bit
Encoding settings : cpuid=1111039 / frame-threads=4 / numa-pools=28 / wpp / no-pmode / no-pme / no-psnr / no-ssim / log-level=2 / input-csp=1 / input-res=3840x1600 / interlace=0 / total-frames=149550 / level-idc=51 / high-tier=1 / uhd-bd=0 / ref=4 / no-allow-non-conformance / repeat-headers / annexb / aud / hrd / info / hash=0 / no-temporal-layers / no-open-gop / min-keyint=24 / keyint=240 / gop-lookahead=0 / bframes=4 / b-adapt=2 / b-pyramid / bframe-bias=0 / rc-lookahead=25 / lookahead-slices=4 / scenecut=40 / radl=0 / no-splice / no-intra-refresh / ctu=64 / min-cu-size=8 / rect / no-amp / max-tu-size=32 / tu-inter-depth=1 / tu-intra-depth=1 / limit-tu=0 / rdoq-level=2 / dynamic-rd=0.00 / no-ssim-rd / signh-i-d-e / no-tskip / nr-intra=0 / nr-inter=0 / no-constrained-intra / no-strong-intra-smoothing / max-merge=3 / limit-refs=3 / limit-modes / me=3 / subme=3 / merange=57 / temporal-mvp / weightp / no-weightb / no-analyze-src-pics / deblock=-3:-3 / no-sao / no-sao-non-deblock / rd=4 / no-early-skip / rskip / no-fast-intra / no-tskip-fast / no-cu-lossless / no-b-intra / no-splitrd-skip / rdpenalty=0 / psy-rd=2.00 / psy-rdoq=1.00 / no-rd-refine / no-lossless / cbqpoffs=0 / crqpoffs=0 / rc=crf / crf=14.0 / qcomp=0.60 / qpstep=4 / stats-write=0 / stats-read=0 / vbv-maxrate=160000 / vbv-bufsize=160000 / vbv-init=0.9 / crf-max=0.0 / crf-min=0.0 / ipratio=1.40 / pbratio=1.30 / aq-mode=1 / aq-strength=1.00 / cutree / zone-count=0 / no-strict-cbr / qg-size=32 / no-rc-grain / qpmax=69 / qpmin=0 / no-const-vbv / sar=0 / overscan=0 / videoformat=5 / range=0 / colorprim=9 / transfer=16 / colormatrix=9 / chromaloc=1 / chromaloc-top=2 / chromaloc-bottom=2 / display-window=0 / master-display=G(13250,34500)B(7500,3000)R(34000,16000)WP (15635,16450)L(40000000,50) / max-cll=4000,1239 / min-luma=0 / max-luma=1023 / log2-max-poc-lsb=8 / vui-timing-info / vui-hrd-info / slices=1 / no-opt-qp-pps / no-opt-ref-list-length-pps / no-multi-pass-opt-rps / scenecut-bias=0.05 / no-opt-cu-delta-qp / no-aq-motion / hdr / hdr-opt / no-dhdr10-opt / no-idr-recovery-sei / analysis-reuse-level=5 / scale-factor=0 / refine-intra=0 / refine-inter=0 / refine-mv=0 / refine-ctu-distortion=0 / no-limit-sao / ctu-info=0 / no-lowpass-dct / refine-analysis-type=0 / copy-pic=1 / max-ausize-factor=1.0 / no-dynamic-refine / no-single-sei / no-hevc-aq / no-svt / qp-adaptation-range=1.00
Default : Yes
Forced : No
Color range : Limited
Color primaries : BT.2020
Transfer characteristics : PQ
Matrix coefficients : BT.2020 non-constant
Mastering display color primar : Display P3
Mastering display luminance : min: 0.0050 cd/m2, max: 4000 cd/m2
Maximum Content Light Level : 4000 cd/m2
Maximum Frame-Average Light Le : 1239 cd/m2

Audio
ID : 2
Format : DTS XLL
Format/Info : Digital Theater Systems
Commercial name : DTS-HD Master Audio
Codec ID : A_DTS
Duration : 1 h 43 min
Bit rate mode : Variable
Bit rate : 2 220 kb/s
Channel(s) : 6 channels
Channel layout : C L R Ls Rs LFE
Sampling rate : 48.0 kHz
Frame rate : 93.750 FPS (512 SPF)
Bit depth : 16 bits
Compression mode : Lossless
Stream size : 1.61 GiB (9%)
Language : English
Default : Yes
Forced : No

Text 1
ID : 3
Format : UTF-8
Codec ID : S_TEXT/UTF8
Codec ID/Info : UTF-8 Plain Text
Duration : 1 h 32 min
Bit rate : 3 b/s
Count of elements : 103
Stream size : 2.61 KiB (0%)
Title : forced
Language : English
Default : Yes
Forced : Yes

Text 2
ID : 4
Format : PGS
Muxing mode : zlib
Codec ID : S_HDMV/PGS
Codec ID/Info : Picture based subtitle format used on BDs/HD-DVDs
Duration : 1 h 40 min
Bit rate : 33.2 kb/s
Count of elements : 2840
Stream size : 23.9 MiB (0%)
Language : English
Default : No
Forced : No

Text 3
ID : 5
Format : UTF-8
Codec ID : S_TEXT/UTF8
Codec ID/Info : UTF-8 Plain Text
Duration : 1 h 42 min
Bit rate : 32 b/s
Count of elements : 942
Stream size : 24.1 KiB (0%)
Language : French
Default : No
Forced : No

Text 4
ID : 6
Format : PGS
Muxing mode : zlib
Codec ID : S_HDMV/PGS
Codec ID/Info : Picture based subtitle format used on BDs/HD-DVDs
Duration : 1 h 42 min
Bit rate : 19.2 kb/s
Count of elements : 1940
Stream size : 14.0 MiB (0%)
Language : Thai
Default : No
Forced : No

Download: cornfile
http://cornfile.com/mf9u8a9j40gw
Download: mekafile
http://www.mekafile.com/dl.php?f=49e840bTwGk8