+ Reply to Thread
Results 1 to 1 of 1
  1. #1
    Administrators Duckload.us's Avatar
    Join Date
    Dec 2010
    Posts
    106,102
    Thanks
    9
    Thanked 110,021 Times in 51,411 Posts

    Cool [ฝรั่ง]-[*สำหรับนักสะสม*] Game of Thrones (2019) Season 8 Episode 3 [1080p AMZN] [เสียงอังกฤษ 5.1] [บรรยายไทย + อังกฤษ] [ซับไทยแปลคุณภาพจากท่านสุนัขป่าโลกันตร์] [ซับ PGS, IDX, SRT]







    เรื่องย่อ

    Soon...





    นักแสดงนำ





    ข้อมูลซีรีส์
    *ดู INFO Report คลิ๊ก!*

    General
    Unique ID : 126593207443469116915633210378382642492 (0x5F3CF7037FBD496531AD44754F828D3C)
    Complete name : Game.of.Thrones.S08E03.1080p.AMZN.WEB-DL.DDP5.1.H.264-jaideejung007.mkv
    Format : Matroska
    Format version : Version 4
    File size : 4.33 GiB
    Duration : 1 h 21 min
    Overall bit rate : 7 566 kb/s
    Movie name : Game.of.Thrones.S08E03.1080p.AMZN.WEB-DL.DDP5.1.H.264-jaideejung007
    Encoded date : UTC 2019-04-30 01:46:25
    Writing application : mkvmerge v33.1.0 ('Primrose') 64-bit
    Writing library : libebml v1.3.7 + libmatroska v1.5.0

    Video
    ID : 1
    Format : AVC
    Format/Info : Advanced Video Codec
    Format profile : [email protected]
    Format settings : CABAC / 4 Ref Frames
    Format settings, CABAC : Yes
    Format settings, Reference frames : 4 frames
    Codec ID : V_MPEG4/ISO/AVC
    Duration : 1 h 21 min
    Bit rate mode : Constant
    Bit rate : 6 911 kb/s
    Nominal bit rate : 10 000 kb/s
    Width : 1 920 pixels
    Height : 1 080 pixels
    Display aspect ratio : 16:9
    Frame rate mode : Constant
    Frame rate : 23.976 (24000/1001) FPS
    Color space : YUV
    Chroma subsampling : 4:2:0
    Bit depth : 8 bits
    Scan type : Progressive
    Bits/(Pixel*Frame) : 0.139
    Stream size : 3.95 GiB (91%)
    Title : Game.of.Thrones.S08E03.1080p.AMZN.WEB-DL.DDP5.1.H.264-jaideejung007
    Language : English
    Default : Yes
    Forced : No
    Color range : Limited
    Color primaries : BT.709
    Transfer characteristics : BT.709
    Matrix coefficients : BT.709

    Audio
    ID : 2
    Format : E-AC-3
    Format/Info : Enhanced AC-3
    Commercial name : Dolby Digital Plus
    Codec ID : A_EAC3
    Duration : 1 h 21 min
    Bit rate mode : Constant
    Bit rate : 640 kb/s
    Channel(s) : 6 channels
    Channel layout : L R C LFE Ls Rs
    Sampling rate : 48.0 kHz
    Frame rate : 31.250 FPS (1536 SPF)
    Compression mode : Lossy
    Delay relative to video : 2 ms
    Stream size : 375 MiB (8%)
    Title : Game.of.Thrones.S08E03.1080p.AMZN.WEB-DL.DDP5.1.H.264-jaideejung007
    Language : English
    Service kind : Complete Main
    Default : Yes
    Forced : No

    Text 1
    ID : 3
    Format : VobSub
    Codec ID : S_VOBSUB
    Codec ID/Info : Picture based subtitle format used on DVDs
    Duration : 1 h 21 min
    Bit rate : 341 b/s
    Count of elements : 194
    Stream size : 204 KiB (0%)
    Title : Thai 480p
    Language : Thai
    Default : No
    Forced : No

    Text 2
    ID : 4
    Format : VobSub
    Codec ID : S_VOBSUB
    Codec ID/Info : Picture based subtitle format used on DVDs
    Duration : 1 h 21 min
    Bit rate : 665 b/s
    Count of elements : 194
    Stream size : 398 KiB (0%)
    Title : Thai 720p
    Language : Thai
    Default : No
    Forced : No

    Text 3
    ID : 5
    Format : VobSub
    Codec ID : S_VOBSUB
    Codec ID/Info : Picture based subtitle format used on DVDs
    Duration : 1 h 21 min
    Bit rate : 1 191 b/s
    Count of elements : 194
    Stream size : 712 KiB (0%)
    Title : Thai 1080p
    Language : Thai
    Default : Yes
    Forced : Yes

    Text 4
    ID : 6
    Format : VobSub
    Codec ID : S_VOBSUB
    Codec ID/Info : Picture based subtitle format used on DVDs
    Duration : 1 h 21 min
    Bit rate : 1 188 b/s
    Count of elements : 194
    Stream size : 711 KiB (0%)
    Title : Thai 1080p Yellow
    Language : Thai
    Default : No
    Forced : No

    Text 5
    ID : 7
    Format : PGS
    Codec ID : S_HDMV/PGS
    Codec ID/Info : Picture based subtitle format used on BDs/HD-DVDs
    Duration : 1 h 21 min
    Bit rate : 4 742 b/s
    Count of elements : 392
    Stream size : 2.77 MiB (0%)
    Title : Thai PGS
    Language : Thai
    Default : No
    Forced : No

    Text 6
    ID : 8
    Format : PGS
    Codec ID : S_HDMV/PGS
    Codec ID/Info : Picture based subtitle format used on BDs/HD-DVDs
    Duration : 1 h 21 min
    Bit rate : 4 719 b/s
    Count of elements : 388
    Stream size : 2.76 MiB (0%)
    Title : Thai PGS OUT
    Language : Thai
    Default : No
    Forced : No

    Text 7
    ID : 9
    Format : UTF-8
    Codec ID : S_TEXT/UTF8
    Codec ID/Info : UTF-8 Plain Text
    Duration : 1 h 19 min
    Bit rate : 8 b/s
    Count of elements : 203
    Stream size : 4.82 KiB (0%)
    Title : CC
    Language : English
    Default : No
    Forced : No

    Text 8
    ID : 10
    Format : UTF-8
    Codec ID : S_TEXT/UTF8
    Codec ID/Info : UTF-8 Plain Text
    Duration : 1 h 21 min
    Bit rate : 13 b/s
    Count of elements : 412
    Stream size : 7.87 KiB (0%)
    Title : CC SDH
    Language : English
    Default : No
    Forced : No

    Menu
    00:00:00.000 : en:Ratings
    00:00:03.890 : en:Studio Logo
    00:00:09.890 : en:Opening Credits
    00:01:56.890 : en:The calm before the storm
    00:06:57.890 : en:The Lord of Light enters the fight
    00:13:38.890 : en:The dead are already here
    00:20:07.890 : en:Silence in the crypts
    00:20:58.890 : en:A snowstorm complicates the battle plan
    00:29:42.890 : en:It's time to look the truth in the face
    00:33:13.890 : en:Man the wall
    00:44:05.890 : en:Wights infiltrate Winterfell
    00:49:52.890 : en:What do we say to the god of death?
    00:54:18.890 : en:Facing off with the Night King
    01:01:25.890 : en:The dead outnumber the living
    01:06:25.890 : eneath has many faces
    01:17:27.890 : enawn approaches
    01:19:57.890 : en:End Credits
    01:21:20.890 : en:Next Time






    ภาพตัวอย่าง แคปจากตัวไฟล์ซีรีส์





    เล่าสู่กันฟัง
    บรรยายไทยโดย สุนัขป่าโลกันตร์
    เรียบเรียง/พิสูจน์อักษรโดย jaideejung007

    แจ้งเพื่อทราบ: เสียงเป็นแบบ AC3+ (Source มาจากต่างประเทศ) ซึ่งเครื่องเล่นบางตัวอาจไม่รองรับ แต่ถ้าเปิดกับคอมพิวเตอร์ รองรับสมบูรณ์ 100% ก่อนดาวน์โหลด รบกวนตรวจสอบให้ละเอียดด้วยนะครับ

    แจ้งเพื่อทราบ 2: ซับไทย (IDX, PGS) สามารถเปิดได้ทุกเครื่องเล่น การันตี 99.99%

    แจ้งเพื่อทราบ 3: ทุกไฟล์ที่แจกในนี้ มี source มาจากต่างประเทศ คือ ไม่ตัด ไม่เซ็นเซอร์ครับ ไฟล์นี้ก็เช่นกัน

    โหลดเสร็จ อย่าลืมกดโหวต เพื่อเป็นกำลังใจสำหรับงานต่อไปด้วยนะครับ

    jaideejung007



    Download: filecondo
    http://www.filecondo.com/dl.php?f=hcb9721HmnBM
    Download: cornfile
    http://cornfile.com/o0ynjlws2723
    Download: mekafile
    http://www.mekafile.com/dl.php?f=GF549fbTwFfp

  2. The Following 2 Users Say Thank You to Duckload.us For This Useful Post:

    Alien_Duck (05-10-2019), mahns8f2u (05-08-2019)

+ Reply to Thread

Thread Information

Users Browsing this Thread

There are currently 1 users browsing this thread. (0 members and 1 guests)

     

Posting Permissions

  • You may not post new threads
  • You may not post replies
  • You may not post attachments
  • You may not edit your posts