+ Reply to Thread
Results 1 to 3 of 3
  1. #1
    Administrators Duckload.us's Avatar
    Join Date
    Dec 2010
    Posts
    104,358
    Thanks
    9
    Thanked 107,564 Times in 50,734 Posts

    Cool [矫谚-Game Of Thrones S08E04-Encode.H.264.1080p. [Master From HBO GO]-[Soundtrack 好寐衣浞耛



    Complete name : Game Of Thrones S8 EP-4.mkv
    Format : Matroska
    Format version : Version 4
    File size : 2.56 GiB
    Duration : 1 h 13 min
    Overall bit rate : 4 961 kb/s
    Encoded date : UTC 2019-05-06 02:46:14
    Writing application : mkvmerge v26.0.0 ('In The Game') 64-bit
    Writing library : libebml v1.3.6 + libmatroska v1.4.9

    Video
    ID : 1
    Format : AVC
    Format/Info : Advanced Video Codec
    Format profile : [email protected]
    Format settings : CABAC / 4 Ref Frames
    Format settings, CABAC : Yes
    Format settings, ReFrames : 4 frames
    Codec ID : V_MPEG4/ISO/AVC
    Duration : 1 h 13 min
    Bit rate : 4 894 kb/s
    Width : 1 920 pixels
    Height : 1 080 pixels
    Display aspect ratio : 16:9
    Frame rate mode : Constant
    Frame rate : 25.000 FPS
    Color space : YUV
    Chroma subsampling : 4:2:0
    Bit depth : 8 bits
    Scan type : Progressive
    Bits/(Pixel*Frame) : 0.094
    Stream size : 2.53 GiB (99%)
    Default : Yes
    Forced : No

    Audio
    ID : 2
    Format : AAC LC
    Format/Info : Advanced Audio Codec Low Complexity
    Codec ID : A_AAC-2
    Duration : 1 h 13 min
    Bit rate : 64.0 kb/s
    Channel(s) : 2 channels
    Channel layout : L R
    Sampling rate : 32.0 kHz
    Frame rate : 31.250 FPS (1024 SPF)
    Compression mode : Lossy
    Delay relative to video : 30 ms
    Stream size : 33.8 MiB (1%)
    Language : English
    Default : Yes
    Forced : No



    2.6 GB
    Download: filecondo
    http://www.filecondo.com/dl.php?f=06aa701HnvBJ
    Download: cornfile
    http://cornfile.com/qpwzrcrjkkn7
    Download: mekafile
    http://www.mekafile.com/dl.php?f=KZ0cbbbTEyPF

  2. #2
    Junior Member
    Join Date
    Apr 2019
    Posts
    1
    Thanks
    0
    Thanked 0 Times in 0 Posts
    酚淞 google drive 淞枇

  3. #3
    Senior Member
    Join Date
    Jun 2014
    Posts
    637
    Thanks
    0
    Thanked 0 Times in 0 Posts
    ⑼氦爻っ押

+ Reply to Thread

Thread Information

Users Browsing this Thread

There are currently 1 users browsing this thread. (0 members and 1 guests)

     

Posting Permissions

  • You may not post new threads
  • You may not post replies
  • You may not post attachments
  • You may not edit your posts