+ Reply to Thread
Results 1 to 4 of 4
  1. #1
    Administrators Duckload.us's Avatar
    Join Date
    Dec 2010
    Posts
    105,571
    Thanks
    9
    Thanked 109,210 Times in 51,210 Posts

    Question [ฝรั่ง]-: JFK (1991) เจเอฟเค รอยเลือดฝังปฐพี (ฉบับพิเศษ) (Directors Cut) [MKV]-Encode.DTS.1080p. [Master]-[พากย์ไทย]



    ภาพยนตร์แนวสืบสวนอิงประวัติศาสตร์เรื่องดังที่จับเอ าคดีลอบสังหารประธานาธิบดี จอห์น เอฟ. เคนเนดี้ มาตีแผ่ โดยผู้กำกับ โอลิเวอร์ สโตน (Oliver Stone) เป็นภาพยนตร์ที่ออกฉายในปี 1991 โดยเป็นภาพยนตร์ที่สร้างจากเหตุการณ์สะเทือนขวัญครั้ งสำคัญในประวัติศาสตร์อเมริกา และประวัติศาสตร์ที่โลกต้องจารึกในวันที่ 22 พฤศจิกายน 1963 เมื่อ จอห์น เอฟ.เคเนดี้ (John Fitzgerald Kennedy) ประธานาธิบดีที่เป็นที่รักของคนอเมริกันถูกลอบสังหาร ที่เมืองดัลลัสต่อหน้าประชาชนนับพันอย่างอุกอาจ ซึ่งเรื่องราวที่เป็นประวัติศาสตร์ของโลกเรื่องนี้คา ดว่าคอหนังหลายคนคงเคยได้ยินเรื่องราว และยังจดจำได้จนถึงทุกวันนี้ โดย JFK คือภาพยนตร์แนวสืบสวนสอบสวนสุดระทึกขวัญเรื่องเยี่ยม อีกเรื่องที่ได้รับการยอมรับ จากคอหนังทั่วโลกการันดีความสำเร็จจากการคว้า 2 รางวัลออสการ์ในสาขาตัดต่อและกำกับภาพยอดเยี่ยม และภาพยนตร์ได้จับประเด็นที่ชวนสงสัยในคดีมาตั้งคำถา ม และปะติดปะต่อเงื่อนงำ พร้อมทั้งชี้ชวนให้ผู้คมมองความเป็นไปได้ของคดีว่ามั นอาจจะมีอะไรมากกว่าที่ทางการสหรัฐอเมริกาแถลง (ว่าผู้ลงมือมีเพียง ลี ฮาร์วี่ย์ ออสวอล์ด เพียงคนเดียว)
    ภาพยนตร์ได้รับการยกย่องว่าเดินเรื่องได้ฉับไว เข้มข้น เร้าใจ และชวนระทึกขวัญ โดยเฉพาะการนำเอาคลิปวีดีโอภาพลอบสังหารจากเหตุการณ์ จริงมาวิเคราะห์แบบช็อตต่อช็อต นาทีต่อนาที ในฉบับพิเศษนี้ ได้เพิ่มความยาวอีก 17 นาที พร้อม Special Features ที่เจาะลึกแง่มุมคดีลอบสังหารนี้แบบลึกขึ้นกว่าเดิม
    2 รางวัลออสการ์ ได้แก่
    1. กำกับภาพยอดเยี่ยม (Best Cinematography)
    2. ลำดับภาพยอดเยี่ยม (Best Film Editing)
    General
    Unique ID : 196416072484194184731013086918917391715 (0x93C45C0BD65FA142D3B3794F60D28563)
    Complete name : JFK (1991) เจเอฟเค รอยเลือดฝังปฐพี (ฉบับพิเศษ) (Director's Cut) [MKV].mkv
    Format : Matroska
    Format version : Version 4
    File size : 13.4 GiB
    Duration : 3 h 25 min
    Overall bit rate : 9 336 kb/s
    Encoded date : UTC 2019-03-17 02:11:40
    Writing application : mkvmerge v32.0.0 ('Astral Progressions') 64-bit
    Writing library : libebml v1.3.7 + libmatroska v1.5.0

    Video
    ID : 1
    Format : AVC
    Format/Info : Advanced Video Codec
    Format profile : [email protected]
    Format settings : CABAC / 4 Ref Frames
    Format settings, CABAC : Yes
    Format settings, RefFrames : 4 frames
    Codec ID : V_MPEG4/ISO/AVC
    Duration : 3 h 25 min
    Bit rate : 8 485 kb/s
    Width : 1 920 pixels
    Height : 800 pixels
    Display aspect ratio : 2.40:1
    Frame rate mode : Constant
    Frame rate : 23.976 FPS
    Color space : YUV
    Chroma subsampling : 4:2:0
    Bit depth : 8 bits
    Scan type : Progressive
    Bits/(Pixel*Frame) : 0.230
    Stream size : 12.2 GiB (91%)
    Writing library : x264 core 65 r1016 dbc5ef0
    Encoding settings : cabac=1 / ref=4 / deblock=1:0:0 / analyse=0x3:0x113 / me=umh / subme=7 / psy_rd=1.0:0.0 / mixed_ref=1 / me_range=16 / chroma_me=1 / trellis=1 / 8x8dct=1 / cqm=0 / deadzone=21,11 / chroma_qp_offset=-2 / threads=6 / nr=0 / decimate=1 / mbaff=0 / bframes=3 / b_pyramid=1 / b_adapt=1 / b_bias=0 / direct=1 / wpredb=1 / keyint=250 / keyint_min=25 / scenecut=40(pre) / rc=2pass / bitrate=8485 / ratetol=1.0 / qcomp=0.60 / qpmin=10 / qpmax=51 / qpstep=4 / cplxblur=20.0 / qblur=0.5 / ip_ratio=1.40 / pb_ratio=1.30 / aq=1:1.00
    Language : English
    Default : Yes
    Forced : No

    Audio 1
    ID : 2
    Format : AC-3
    Format/Info : Audio Coding 3
    Commercial name : Dolby Digital
    Codec ID : A_AC3
    Duration : 3 h 25 min
    Bit rate mode : Constant
    Bit rate : 192 kb/s
    Channel(s) : 2 channels
    Channel layout : L R
    Sampling rate : 48.0 kHz
    Frame rate : 31.250 FPS (1536 SPF)
    Bit depth : 16 bits
    Compression mode : Lossy
    Stream size : 283 MiB (2%)
    Title : Thai 2.0 [192 Kbps] AC.3 [CVD International]
    Language : Thai
    Service kind : Complete Main
    Default : Yes
    Forced : No

    Audio 2
    ID : 3
    Format : AC-3
    Format/Info : Audio Coding 3
    Commercial name : Dolby Digital
    Codec ID : A_AC3
    Duration : 3 h 25 min
    Bit rate mode : Constant
    Bit rate : 640 kb/s
    Channel(s) : 6 channels
    Channel layout : L R C LFE Ls Rs
    Sampling rate : 48.0 kHz
    Frame rate : 31.250 FPS (1536 SPF)
    Bit depth : 16 bits
    Compression mode : Lossy
    Stream size : 942 MiB (7%)
    Language : English
    Service kind : Complete Main
    Default : No
    Forced : No

    Text 1
    ID : 4
    Format : VobSub
    Muxing mode : zlib
    Codec ID : S_VOBSUB
    Codec ID/Info : Picture based subtitle format used on DVDs
    Duration : 3 h 19 min
    Bit rate : 7 019 b/s
    Count of elements : 3145
    Stream size : 10.0 MiB (0%)
    Title : Thai 720p
    Language : Thai
    Default : No
    Forced : No

    Text 2
    ID : 5
    Format : VobSub
    Muxing mode : zlib
    Codec ID : S_VOBSUB
    Codec ID/Info : Picture based subtitle format used on DVDs
    Duration : 3 h 19 min
    Bit rate : 12.8 kb/s
    Count of elements : 3145
    Stream size : 18.3 MiB (0%)
    Title : Thai 1080p
    Language : Thai
    Default : No
    Forced : No

    Text 3
    ID : 6
    Format : VobSub
    Muxing mode : zlib
    Codec ID : S_VOBSUB
    Codec ID/Info : Picture based subtitle format used on DVDs
    Duration : 3 h 17 min
    Bit rate : 7 589 b/s
    Count of elements : 3166
    Stream size : 10.7 MiB (0%)
    Title : English 720p
    Language : English
    Default : No
    Forced : No

    Text 4
    ID : 7
    Format : UTF-8
    Codec ID : S_TEXT/UTF8
    Codec ID/Info : UTF-8 Plain Text
    Duration : 3 h 17 min
    Bit rate : 89 b/s
    Count of elements : 3166
    Stream size : 129 KiB (0%)
    Title : Eng SRT
    Language : English
    Default : No
    Forced : No



    http://cornfile.com/tgk8tzgjgu24
    http://www.mekafile.com/dl.php?f=61ca74bRELzG

  2. The Following User Says Thank You to Duckload.us For This Useful Post:

    smakha (07-09-2019)

  3. #2
    Senior Member
    Join Date
    Jun 2012
    Posts
    1,176
    Thanks
    0
    Thanked 1 Time in 1 Post
    ขอบคุณครับ

  4. #3
    Senior Member
    Join Date
    Jul 2012
    Posts
    6,134
    Thanks
    0
    Thanked 0 Times in 0 Posts
    ขอบคุณมากจ้า

  5. #4
    Senior Member
    Join Date
    Jun 2014
    Posts
    791
    Thanks
    0
    Thanked 0 Times in 0 Posts
    ขอบคุณครับ

+ Reply to Thread

Thread Information

Users Browsing this Thread

There are currently 1 users browsing this thread. (0 members and 1 guests)

     

Posting Permissions

  • You may not post new threads
  • You may not post replies
  • You may not post attachments
  • You may not edit your posts