+ Reply to Thread
Results 1 to 2 of 2
  1. #1
    Administrators Duckload.us's Avatar
    Join Date
    Dec 2010
    Posts
    104,433
    Thanks
    9
    Thanked 107,685 Times in 50,781 Posts

    Question [ฝรั่ง] Black Panther (2018) [MKV HEVC 4K HDR10] [English : Dolby Atmos / Dolby TrueHD 7.1 Ch / HE-AAC 7.1 Ch] [พากย์ไทย : HE-AAC 5.1 Ch] [บรรยาย PGS : English / ไทย]



    Black Panther (2018) [MKV HEVC 4K HDR10]
    [English : Dolby Atmos / Dolby TrueHD 7.1 Ch / HE-AAC 7.1 Ch] [พากย์ไทย : HE-AAC 5.1 Ch] [บรรยาย PGS : English / ไทย]

    เรื่องราวต่อมา ของกษัตริย์องค์ใหม่ต้องรับมือกับศัตรูคนใหม่และศัตร ูทางการเมืองเพื่อปกป้องประเทศ Wakada ของเขาให้รอดพ้นจากสงครามโลกครั้งใหม่
    โดยภาพยนตร์เรื่องนี้ได้นักแสดงผิวสีมากมายฝีมือ เช่น Michael B. Jordan, Danai Gurira Forest Whitaker
    นอกจากนี้ยังได้นักแสดงดีกรีรางวัลออสการ์อย่าง Lupita Nyong’o มาร่วมแสดงในเรื่องนี้ด้วย กำกับโดย Ryan Coogler!!!







    Media Info

    Quote:

    General
    Complete name : Black Panther (2018) 4K [EN TrueHD 7.1 Atmos HE-AAC 7.1 TH HE-AAC 5.1].mkv
    Format : Matroska
    Format version : Version 4
    File size : 13.4 GiB
    Duration : 2 h 14 min
    Overall bit rate mode : Variable
    Overall bit rate : 14.3 Mb/s
    Movie name : Black Panther (2018) 4K [EN TrueHD 7.1 Atmos HE-AAC 7.1 TH HE-AAC 5.1]
    Encoded date : UTC 2019-05-08 06:01:45
    Writing application : mkvmerge v30.1.0 ('Forever And More') 64-bit
    Writing library : libebml v1.3.6 + libmatroska v1.4.9

    Video
    ID : 1
    Format : HEVC
    Format/Info : High Efficiency Video Coding
    Commercial name : HDR10
    Format profile : Main [email protected]@High
    Codec ID : V_MPEGH/ISO/HEVC
    Duration : 2 h 14 min
    Bit rate : 9 509 kb/s
    Width : 3 840 pixels
    Height : 2 160 pixels
    Display aspect ratio : 16:9
    Frame rate mode : Constant
    Frame rate : 23.976 (24000/1001) FPS
    Color space : YUV
    Chroma subsampling : 4:2:0 (Type 2)
    Bit depth : 10 bits
    Bits/(Pixel*Frame) : 0.048
    Stream size : 8.94 GiB (67%)
    Default : Yes
    Forced : No
    Color range : Limited
    Color primaries : BT.2020
    Transfer characteristics : PQ
    Matrix coefficients : BT.2020 non-constant
    Mastering display color primar : Display P3
    Mastering display luminance : min: 0.0001 cd/m2, max: 1000 cd/m2

    Audio 1
    ID : 2
    Format : MLP FBA 16-ch
    Format/Info : Meridian Lossless Packing FBA with 16-channel presentation
    Commercial name : Dolby TrueHD with Dolby Atmos
    Codec ID : A_TRUEHD
    Duration : 2 h 14 min
    Bit rate mode : Variable
    Bit rate : 4 327 kb/s
    Maximum bit rate : 7 134 kb/s
    Channel(s) : 8 channels
    Channel layout : L R C LFE Ls Rs Lb Rb
    Sampling rate : 48.0 kHz
    Frame rate : 1 200.000 FPS (40 SPF)
    Compression mode : Lossless
    Stream size : 4.07 GiB (30%)
    Language : English
    Default : Yes
    Forced : No
    Number of dynamic objects : 13
    Bed channel count : 1 channel
    Bed channel configuration : LFE

    Audio 2
    ID : 3
    Format : AAC LC SBR
    Format/Info : Advanced Audio Codec Low Complexity with Spectral Band Replication
    Commercial name : HE-AAC
    Format settings : Explicit
    Codec ID : A_AAC-2
    Duration : 2 h 14 min
    Bit rate : 192 kb/s
    Channel(s) : 8 channels
    Channel layout : C L R Ls Rs Lb Rb LFE
    Sampling rate : 48.0 kHz
    Frame rate : 23.438 FPS (2048 SPF)
    Compression mode : Lossy
    Delay relative to video : 36 ms
    Stream size : 184 MiB (1%)
    Language : English
    Default : No
    Forced : No

    Audio 3
    ID : 4
    Format : AAC LC SBR
    Format/Info : Advanced Audio Codec Low Complexity with Spectral Band Replication
    Commercial name : HE-AAC
    Format settings : Explicit
    Codec ID : A_AAC-2
    Duration : 2 h 14 min
    Bit rate : 144 kb/s
    Channel(s) : 6 channels
    Channel layout : C L R Ls Rs LFE
    Sampling rate : 48.0 kHz
    Frame rate : 23.438 FPS (2048 SPF)
    Compression mode : Lossy
    Delay relative to video : 36 ms
    Stream size : 137 MiB (1%)
    Language : Thai
    Default : No
    Forced : No

    Text 1
    ID : 5
    Format : PGS
    Muxing mode : zlib
    Codec ID : S_HDMV/PGS
    Codec ID/Info : Picture based subtitle format used on BDs/HD-DVDs
    Duration : 2 h 14 min
    Bit rate : 32.4 kb/s
    Count of elements : 3670
    Stream size : 31.1 MiB (0%)
    Language : English
    Default : No
    Forced : No

    Text 2
    ID : 6
    Format : PGS
    Muxing mode : zlib
    Codec ID : S_HDMV/PGS
    Codec ID/Info : Picture based subtitle format used on BDs/HD-DVDs
    Duration : 2 h 14 min
    Bit rate : 16.1 kb/s
    Count of elements : 2912
    Stream size : 15.5 MiB (0%)
    Language : Thai
    Default : No
    Forced : No

    Menu
    00:00:00.000 : en01)00:00:00:000
    00:06:56.290 : en02)00:06:56:290
    00:12:02.805 : en03)00:12:02:805
    00:19:12.359 : en04)00:19:12:359
    00:28:32.961 : en05)00:28:32:961
    00:33:11.698 : en06)00:33:11:698
    00:40:57.496 : en07)00:40:57:496
    00:48:34.036 : en08)00:48:34:036
    00:53:46.097 : en09)00:53:46:097
    01:01:57.338 : en10)01:01:57:338
    01:08:33.025 : en11)01:08:33:025
    01:16:46.768 : en12)01:16:46:768
    01:22:24.022 : en13)01:22:24:022
    01:31:21.434 : en14)01:31:21:434
    01:41:15.360 : en15)01:41:15:360
    01:50:56.483 : en16)01:50:56:483
    01:59:16.941 : en17)01:59:16:941
    02:02:43.647 : en18)02:02:43:647
    02:14:34.149 : en19)02:14:34:149


    Download: cornfile
    http://cornfile.com/5yq7ma01wro2
    Download: mekafile
    http://www.mekafile.com/dl.php?f=GBcb84bTMa5k

  2. The Following User Says Thank You to Duckload.us For This Useful Post:

    Wesker_TOT (05-15-2019)

  3. #2
    Senior Member
    Join Date
    Dec 2013
    Posts
    1,669
    Thanks
    3,625
    Thanked 0 Times in 0 Posts
    ขอบคุณครับ...

+ Reply to Thread

Thread Information

Users Browsing this Thread

There are currently 1 users browsing this thread. (0 members and 1 guests)

     

Posting Permissions

  • You may not post new threads
  • You may not post replies
  • You may not post attachments
  • You may not edit your posts