+ Reply to Thread
Results 1 to 2 of 2
  1. #1
    Administrators Duckload.us's Avatar
    Join Date
    Dec 2010
    Posts
    102,917
    Thanks
    9
    Thanked 105,458 Times in 50,053 Posts

    Question [] Bumblebee (2018) [MKV HEVC 4K HDR10] [English : Dolby Atmos / Dolby TrueHD 7.1 Ch / Dolby Digital Plus 5.1 Ch] [ҡ : Dolby Digital Plus 5.1 Ch] [ PGS : English / ]



    Bumblebee (2018) [MKV HEVC 4K HDR10]
    [English : Dolby Atmos / Dolby TrueHD 7.1 Ch / Dolby Digital Plus 5.1 Ch] [ҡ : Dolby Digital Plus 5.1 Ch] [ PGS : English / ]

    ͹Ѻ㹻 1987 źդ鹾ź㹾鹷红ͧ ͧҴ ѰԿ
    · ( 䵹Ŵ) Ƿѧؤú 18 鹾ź Ҿöࡹͧؾѧ ҹ֡˹ѡ
    ͡ҺźöҸ!!!







    Media Info

    Quote:

    General
    Complete name : Bumblebee (2018) 4K [EN TrueHD 7.1 Atmos DD+5.1 TH DD+5.1].mkv
    Format : Matroska
    Format version : Version 4
    File size : 11.8 GiB
    Duration : 1 h 53 min
    Overall bit rate mode : Variable
    Overall bit rate : 14.9 Mb/s
    Movie name : Bumblebee (2018) 4K [EN TrueHD 7.1 Atmos DD+5.1 TH DD+5.1]
    Encoded date : UTC 2019-05-07 15:42:17
    Writing application : mkvmerge v30.1.0 ('Forever And More') 64-bit
    Writing library : libebml v1.3.6 + libmatroska v1.4.9

    Video
    ID : 1
    Format : HEVC
    Format/Info : High Efficiency Video Coding
    Commercial name : HDR10
    Format profile : Main [email protected]@High
    Codec ID : V_MPEGH/ISO/HEVC
    Duration : 1 h 53 min
    Bit rate : 9 543 kb/s
    Width : 3 840 pixels
    Height : 2 160 pixels
    Display aspect ratio : 16:9
    Frame rate mode : Constant
    Frame rate : 23.976 (24000/1001) FPS
    Color space : YUV
    Chroma subsampling : 4:2:0 (Type 2)
    Bit depth : 10 bits
    Bits/(Pixel*Frame) : 0.048
    Stream size : 7.59 GiB (64%)
    Default : Yes
    Forced : No
    Color range : Limited
    Color primaries : BT.2020
    Transfer characteristics : PQ
    Matrix coefficients : BT.2020 non-constant
    Mastering display color primar : Display P3
    Mastering display luminance : min: 0.0001 cd/m2, max: 1000 cd/m2

    Audio 1
    ID : 2
    Format : MLP FBA 16-ch
    Format/Info : Meridian Lossless Packing FBA with 16-channel presentation
    Commercial name : Dolby TrueHD with Dolby Atmos
    Codec ID : A_TRUEHD
    Duration : 1 h 53 min
    Bit rate mode : Variable
    Bit rate : 4 737 kb/s
    Maximum bit rate : 7 761 kb/s
    Channel(s) : 8 channels
    Channel layout : L R C LFE Ls Rs Lb Rb
    Sampling rate : 48.0 kHz
    Frame rate : 1 200.000 FPS (40 SPF)
    Compression mode : Lossless
    Stream size : 3.77 GiB (32%)
    Language : English
    Default : Yes
    Forced : No
    Number of dynamic objects : 11
    Bed channel count : 1 channel
    Bed channel configuration : LFE

    Audio 2
    ID : 3
    Format : E-AC-3
    Format/Info : Enhanced AC-3
    Commercial name : Dolby Digital Plus
    Codec ID : A_EAC3
    Duration : 1 h 53 min
    Bit rate mode : Constant
    Bit rate : 256 kb/s
    Channel(s) : 6 channels
    Channel layout : L R C LFE Ls Rs
    Sampling rate : 48.0 kHz
    Frame rate : 31.250 FPS (1536 SPF)
    Compression mode : Lossy
    Stream size : 209 MiB (2%)
    Language : English
    Service kind : Complete Main
    Default : No
    Forced : No

    Audio 3
    ID : 4
    Format : E-AC-3
    Format/Info : Enhanced AC-3
    Commercial name : Dolby Digital Plus
    Codec ID : A_EAC3
    Duration : 1 h 53 min
    Bit rate mode : Constant
    Bit rate : 256 kb/s
    Channel(s) : 6 channels
    Channel layout : L R C LFE Ls Rs
    Sampling rate : 48.0 kHz
    Frame rate : 31.250 FPS (1536 SPF)
    Compression mode : Lossy
    Stream size : 209 MiB (2%)
    Language : Thai
    Service kind : Complete Main
    Default : No
    Forced : No

    Text 1
    ID : 5
    Format : PGS
    Muxing mode : zlib
    Codec ID : S_HDMV/PGS
    Codec ID/Info : Picture based subtitle format used on BDs/HD-DVDs
    Duration : 1 h 48 min
    Bit rate : 27.6 kb/s
    Count of elements : 2444
    Stream size : 21.5 MiB (0%)
    Language : English
    Default : No
    Forced : No

    Text 2
    ID : 6
    Format : PGS
    Muxing mode : zlib
    Codec ID : S_HDMV/PGS
    Codec ID/Info : Picture based subtitle format used on BDs/HD-DVDs
    Duration : 1 h 53 min
    Bit rate : 17.8 kb/s
    Count of elements : 2290
    Stream size : 14.4 MiB (0%)
    Language : Thai
    Default : No
    Forced : No

    Menu
    00:00:00.000 : en01)00:00:00:000
    00:03:30.710 : en02)00:03:30:710
    00:12:16.485 : en03)00:12:16:485
    00:16:56.724 : en04)00:16:56:724
    00:21:03.053 : en05)00:21:03:053
    00:26:42.601 : en06)00:26:42:601
    00:32:33.326 : en07)00:32:33:326
    00:39:44.090 : en08)00:39:44:090
    00:45:18.590 : en09)00:45:18:590
    00:50:43.623 : en10)00:50:43:623
    00:54:16.253 : en11)00:54:16:253
    01:01:10.708 : en12)01:01:10:708
    01:06:26.899 : en13)01:06:26:899
    01:11:39.545 : en14)01:11:39:545
    01:16:08.105 : en15)01:16:08:105
    01:21:37.142 : en16)01:21:37:142
    01:25:08.603 : en17)01:25:08:603
    01:30:15.410 : en18)01:30:15:410
    01:36:46.801 : en19)01:36:46:801
    01:43:52.559 : en20)01:43:52:559
    01:49:43.201 : en21)01:49:43:201
    01:53:53.243 : en22)01:53:53:243


    Download: cornfile
    http://cornfile.com/3vq62ok780wr
    Download: mekafile
    http://www.mekafile.com/dl.php?f=4M44abbTMlQU

  2. The Following User Says Thank You to Duckload.us For This Useful Post:

    Wesker_TOT (05-15-2019)

  3. #2
    Senior Member
    Join Date
    Dec 2013
    Posts
    1,574
    Thanks
    3,527
    Thanked 0 Times in 0 Posts
    ͺسѺ...

Thread Information

Users Browsing this Thread

There are currently 1 users browsing this thread. (0 members and 1 guests)

     

Posting Permissions

  • You may not post new threads
  • You may not post replies
  • You may not post attachments
  • You may not edit your posts