+ Reply to Thread
Results 1 to 3 of 3
  1. #1
    Administrators Duckload.us's Avatar
    Join Date
    Dec 2010
    Posts
    105,315
    Thanks
    9
    Thanked 108,861 Times in 51,106 Posts

    Question [ฝรั่ง]-[ใหม่] *Shazam! (2019) ชาแซม: ฮีโร่ รั่วทุกเม็ด!*[ ภาพชัดแจ่ม เสียดายมีซับเกาหลีฝัง]-HDTV.H.264.1080p. [Modified]-[พากย์ไทยโรง]



    เรื่องย่อ : เราทุกคนล้วนมีซูเปอร์ฮีโร่อยู่ในตัวเรา แค่ต้องอาศัยเวทมนตร์เพื่อดึงมันออกมาสักหน่อย แต่สำหรับ บิลลี่ แบทสัน (แอชเชอร์ แองเจล) แค่ตะโกนออกมาคำเดียวว่า ชาแซม! จากเด็กในบ้านอุปถัมภ์วัย 14 ปี ก็สามารถกลายเป็นซูเปอร์ฮีโร่ชาแซม (แซ็คคารี่ ลีวาย) พ่อมดผู้อ่อนโยนในอดีตได้ แต่เขายังคงมีหัวใจที่เป็นเด็กแม้จะอยู่ในร่างของขี้ เมาผู้น่าเกรงขาม ชาแซมในร่างผู้ใหญ่ทำให้เขาได้ใช้ชีวิตแบบเด็กวัยรุ่ นที่มีพลังวิเศษ คือ สนุกสนานไปกับมัน! เขาบินได้มั้ย? มองเห็นภาพแบบเอ็กซ์เรย์ได้หรือเปล่า? ยิงสายฟ้าออกมาจากมือได้มั้ย? จะผ่านบททดสอบทางสังคมของเขาได้หรือเปล่า? ชาแซมต้องมีการทดสอบขีดจำกัดความสามารถหลายอย่างด้วย ความสนุกแบบเด็ก ๆ แต่เขาต้องคุมพลังพวกนี้ให้ได้โดยเร็ว เพื่อต่อสู้กับพลังความชั่วร้ายของ ดร.แธดดีอุส ไซวาน่า (มาร์ค สตรอง)

    Format : Matroska
    Format version : Version 4 / Version 2
    File size : 6.15 GiB
    Duration : 2 h 10 min
    Overall bit rate mode : Variable
    Overall bit rate : 6 755 kb/s
    Encoded date : UTC 2019-05-12 07:35:50
    Writing application : mkvmerge v33.1.0 ('Primrose') 64-bit
    Writing library : libebml v1.3.7 + libmatroska v1.5.0 / Lavf58.12.100

    Video
    ID : 1
    Format : AVC
    Format/Info : Advanced Video Codec
    Format profile : [email protected]
    Format settings : CABAC / 1 Ref Frames
    Format settings, CABAC : Yes
    Format settings, ReFrames : 1 frame
    Format settings, GOP : M=1, N=25
    Codec ID : V_MPEG4/ISO/AVC
    Duration : 2 h 10 min
    Bit rate mode : Variable
    Bit rate : 6 317 kb/s
    Maximum bit rate : 2 000 kb/s
    Width : 1 920 pixels
    Height : 1 080 pixels
    Display aspect ratio : 16:9
    Frame rate mode : Constant
    Frame rate : 23.976 (24000/1001) FPS
    Color space : YUV
    Chroma subsampling : 4:2:0
    Bit depth : 8 bits
    Scan type : Progressive
    Bits/(Pixel*Frame) : 0.127
    Stream size : 5.75 GiB (94%)
    Default : Yes
    Forced : No

    Audio #1
    ID : 2
    Format : AAC
    Format/Info : Advanced Audio Codec
    Format profile : LC
    Codec ID : A_AAC-2
    Duration : 2 h 10 min
    Bit rate : 308 kb/s
    Channel(s) : 6 channels
    Channel positions : Front: L C R, Side: L R, LFE
    Sampling rate : 48.0 kHz
    Frame rate : 46.875 FPS (1024 SPF)
    Compression mode : Lossy
    Stream size : 287 MiB (5%)
    Default : Yes
    Forced : No

    Audio #2
    ID : 3
    Format : AC-3
    Format/Info : Audio Coding 3
    Codec ID : A_AC3
    Duration : 2 h 10 min
    Bit rate mode : Constant
    Bit rate : 128 kb/s
    Channel(s) : 2 channels
    Channel positions : Front: L R
    Sampling rate : 48.0 kHz
    Frame rate : 31.250 FPS (1536 SPF)
    Bit depth : 16 bits
    Compression mode : Lossy
    Stream size : 119 MiB (2%)
    Language : English
    Service kind : Complete Main
    Default : No
    Forced : No





    Download: cornfile
    http://cornfile.com/00w5q3sv1m8k
    Download: mekafile
    http://www.mekafile.com/dl.php?f=4Rc8dabTUBzQ

  2. The Following 2 Users Say Thank You to Duckload.us For This Useful Post:

    PUNKROCK (05-15-2019), Wesker_TOT (05-13-2019)

  3. #2
    Senior Member
    Join Date
    Dec 2013
    Posts
    1,712
    Thanks
    3,668
    Thanked 0 Times in 0 Posts
    ขอบคุณครับ...

  4. #3
    Senior Member PUNKROCK's Avatar
    Join Date
    Jul 2011
    Posts
    1,265
    Thanks
    1,150
    Thanked 0 Times in 0 Posts
    . โชคดีมีความสุข นะครับพี่
    PUNKROCK NEVERDIE

+ Reply to Thread

Thread Information

Users Browsing this Thread

There are currently 1 users browsing this thread. (0 members and 1 guests)

     

Posting Permissions

  • You may not post new threads
  • You may not post replies
  • You may not post attachments
  • You may not edit your posts