+ Reply to Thread
Results 1 to 1 of 1
  1. #1
    Administrators Duckload.us's Avatar
    Join Date
    Dec 2010
    Posts
    105,315
    Thanks
    9
    Thanked 108,861 Times in 51,106 Posts

    Talking [ฝรั่ง]-[*สำหรับนักสะสม*] Game of Thrones (2019) Season 8 Episode 5 [1080p AMZN] [เสียงอังกฤษ 5.1] [บรรยายไทย + อังกฤษ] [ซับไทยแปลคุณภาพจากท่านสุนัขป่าโลกันตร์] [ซับ PGS, IDX, SRT]








    Game of Thrones ซีรีย์แนวแฟนตาซีย้อนยุคของสถานีโทรทัศน์เอชบีโอ สร้างสรรค์โดยเดวิด เบนิออฟฟ์ และดี. บี. ไวส์ ดัดแปลงจากหนังสือเล่มที่หนึ่งของชุดหนังสือนิยายขาย ดีของจอร์จ อาร์. อาร์. มาร์ติน เล่าเรื่องราวความขัดแย้งระหว่างตระกูลชนชั้นสูงในจั กรวรรดิต่างๆ เพื่อครองบัลลังก์เหล็ก นอกจากนี้ยังเล่าเรื่องราวเกี่ยวกับภัยคุกคามจากดินแ ดนตอนเหนือของเวสเทรอสอันมีหิมะและน้ำแข็งปกคลุม พร้อมกับภัยจากทวีปฝั่งตะวันออก พ้นจากทะเลแคบไป ซึ่งค่อยปะทุขึ้นพร้อมๆ กัน













    General
    Unique ID : 241710866508820587125893708545928113124 (0xB5D7D1CF4B6150ADE6B8B1DAC57AABE4)
    Complete name : Game.of.Thrones.S08E05.1080p.AMZN.WEB-DL.DDP5.1.H.264-jaideejung007.mkv
    Format : Matroska
    Format version : Version 4
    File size : 4.97 GiB
    Duration : 1 h 20 min
    Overall bit rate : 8 876 kb/s
    Movie name : Game.of.Thrones.S08E05.1080p.AMZN.WEB-DL.DDP5.1.H.264-jaideejung007
    Encoded date : UTC 2019-05-14 07:45:39
    Writing application : mkvmerge v33.1.0 ('Primrose') 64-bit
    Writing library : libebml v1.3.7 + libmatroska v1.5.0

    Video
    ID : 1
    Format : AVC
    Format/Info : Advanced Video Codec
    Format profile : [email protected]
    Format settings : CABAC / 4 Ref Frames
    Format settings, CABAC : Yes
    Format settings, Reference frames : 4 frames
    Codec ID : V_MPEG4/ISO/AVC
    Duration : 1 h 20 min
    Bit rate mode : Constant
    Bit rate : 8 197 kb/s
    Nominal bit rate : 10 000 kb/s
    Width : 1 920 pixels
    Height : 1 080 pixels
    Display aspect ratio : 16:9
    Frame rate mode : Constant
    Frame rate : 23.976 (24000/1001) FPS
    Color space : YUV
    Chroma subsampling : 4:2:0
    Bit depth : 8 bits
    Scan type : Progressive
    Bits/(Pixel*Frame) : 0.165
    Stream size : 4.59 GiB (92%)
    Title : Game.of.Thrones.S08E05.1080p.AMZN.WEB-DL.DDP5.1.H.264-jaideejung007
    Language : English
    Default : Yes
    Forced : No
    Color range : Limited
    Color primaries : BT.709
    Transfer characteristics : BT.709
    Matrix coefficients : BT.709

    Audio
    ID : 2
    Format : E-AC-3
    Format/Info : Enhanced AC-3
    Commercial name : Dolby Digital Plus
    Codec ID : A_EAC3
    Duration : 1 h 20 min
    Bit rate mode : Constant
    Bit rate : 640 kb/s
    Channel(s) : 6 channels
    Channel layout : L R C LFE Ls Rs
    Sampling rate : 48.0 kHz
    Frame rate : 31.250 FPS (1536 SPF)
    Compression mode : Lossy
    Delay relative to video : 16 ms
    Stream size : 367 MiB (7%)
    Title : Game.of.Thrones.S08E05.1080p.AMZN.WEB-DL.DDP5.1.H.264-jaideejung007
    Language : English
    Service kind : Complete Main
    Default : Yes
    Forced : No

    Text #1
    ID : 3
    Format : VobSub
    Codec ID : S_VOBSUB
    Codec ID/Info : Picture based subtitle format used on DVDs
    Duration : 1 h 19 min
    Bit rate : 972 b/s
    Count of elements : 449
    Stream size : 569 KiB (0%)
    Title : Thai 480p
    Language : Thai
    Default : No
    Forced : No

    Text #2
    ID : 4
    Format : VobSub
    Codec ID : S_VOBSUB
    Codec ID/Info : Picture based subtitle format used on DVDs
    Duration : 1 h 19 min
    Bit rate : 1 908 b/s
    Count of elements : 449
    Stream size : 1.09 MiB (0%)
    Title : Thai 720p
    Language : Thai
    Default : No
    Forced : No

    Text #3
    ID : 5
    Format : VobSub
    Codec ID : S_VOBSUB
    Codec ID/Info : Picture based subtitle format used on DVDs
    Duration : 1 h 19 min
    Bit rate : 3 416 b/s
    Count of elements : 449
    Stream size : 1.95 MiB (0%)
    Title : Thai 1080p
    Language : Thai
    Default : Yes
    Forced : Yes

    Text #4
    ID : 6
    Format : VobSub
    Codec ID : S_VOBSUB
    Codec ID/Info : Picture based subtitle format used on DVDs
    Duration : 1 h 19 min
    Bit rate : 3 408 b/s
    Count of elements : 449
    Stream size : 1.95 MiB (0%)
    Title : Thai 1080p Yellow
    Language : Thai
    Default : No
    Forced : No

    Text #5
    ID : 7
    Format : PGS
    Codec ID : S_HDMV/PGS
    Codec ID/Info : Picture based subtitle format used on BDs/HD-DVDs
    Duration : 1 h 19 min
    Bit rate : 13.6 kb/s
    Count of elements : 906
    Stream size : 7.76 MiB (0%)
    Title : Thai PGS
    Language : Thai
    Default : No
    Forced : No

    Text #6
    ID : 8
    Format : PGS
    Codec ID : S_HDMV/PGS
    Codec ID/Info : Picture based subtitle format used on BDs/HD-DVDs
    Duration : 1 h 19 min
    Bit rate : 13.5 kb/s
    Count of elements : 898
    Stream size : 7.73 MiB (0%)
    Title : Thai PGS OUT
    Language : Thai
    Default : No
    Forced : No

    Text #7
    ID : 9
    Format : UTF-8
    Codec ID : S_TEXT/UTF8
    Codec ID/Info : UTF-8 Plain Text
    Duration : 1 h 19 min
    Bit rate : 24 b/s
    Count of elements : 517
    Stream size : 14.5 KiB (0%)
    Title : CC
    Language : English
    Default : No
    Forced : No

    Text #8
    ID : 10
    Format : UTF-8
    Codec ID : S_TEXT/UTF8
    Codec ID/Info : UTF-8 Plain Text
    Duration : 1 h 19 min
    Bit rate : 29 b/s
    Count of elements : 739
    Stream size : 17.4 KiB (0%)
    Title : CC SDH
    Language : English
    Default : No
    Forced : No

    Menu
    00:00:00.000 : en:Stay Tuned
    00:00:01.920 : en:Ratings
    00:00:06.920 : en:Previously On
    00:01:41.920 : en:Studio Logo
    00:01:47.920 : en:Opening Credits
    00:03:35.920 : en:The greater the risk, the greater the reward
    00:05:08.920 : en:Betrayal must be dealt with accordingly
    00:14:10.920 : en:Mercy is our strength
    00:20:10.920 : en:Sail for a new life
    00:28:11.920 : en:Preparing the city for battle
    00:33:56.920 : en:The battle begins
    00:39:08.920 : en:The red keep has never fallen
    00:40:43.920 : en:Ring the bells
    00:45:48.920 : en:Surrender means nothing
    00:51:04.920 : en:Another one for the king-slayer
    00:56:01.920 : en:The revenge game has no future
    00:57:43.920 : en:The Clegane's reunite
    01:07:56.920 : en:Jon makes a decision
    01:08:56.920 : eneath is everywhere
    01:12:02.920 : en:Nothing else matters
    01:14:28.920 : en:King's Landing burns
    01:18:17.920 : en:End Credits
    01:19:37.920 : en:Next Week
    01:20:04.920 : en:Inside the Episode




    แคปจากตัวไฟล์ซีรีส์












    บรรยายไทยโดย สุนัขป่าโลกันตร์
    เรียบเรียง/พิสูจน์อักษรโดย jaideejung007




    4.97 GB jaideejung007
    Download: filecondo
    http://www.filecondo.com/dl.php?f=Cd16881HqvvF
    Download: cornfile
    cf ติด LC ครับ
    Download: mekafile
    http://www.mekafile.com/dl.php?f=50cc77bTZxIs


    4.95 GB franky
    Download: filecondo
    http://www.filecondo.com/dl.php?f=Le05b81Hqvyw
    Download: mekafile
    http://www.mekafile.com/dl.php?f=EO3272bTZxBN

    4.97 GB vicvicky
    Download: filecondo
    http://www.filecondo.com/dl.php?f=x2ba851Hq6LV
    Download: mekafile
    http://www.mekafile.com/dl.php?f=2K4ec3bTWKE8


    2.56 GB
    Download: filecondo
    http://www.filecondo.com/dl.php?f=nf4c241Hq6mv
    Download: mekafile
    http://www.mekafile.com/dl.php?f=I112bebTWHMj

    1.44 GB
    Download: filecondo
    http://www.filecondo.com/dl.php?f=a6d3541Hq9aF
    Download: mekafile
    http://www.mekafile.com/dl.php?f=rpf4acbTX1rr

  2. The Following User Says Thank You to Duckload.us For This Useful Post:

    mahns8f2u (05-15-2019)

+ Reply to Thread

Thread Information

Users Browsing this Thread

There are currently 1 users browsing this thread. (0 members and 1 guests)

     

Posting Permissions

  • You may not post new threads
  • You may not post replies
  • You may not post attachments
  • You may not edit your posts