★★ไฟล์คุณภาพคมชัด!!! เน้นบิตเรท★★

★★ซับไทย From BluRay Master
★★



MiniHD

The.Mule.2018.1080p.BDRip.x264.DTS-EntHD_ProMaster.mkv
Format : Matroska
Format version : Version 4 / Version 2
File size : 4.39 GiB
Duration : 1 h 56 min
Overall bit rate : 5 393 kb/s
Movie name : The.Mule.2018.1080p.BDRip.x264.DTS-EntHD_ProMaster
Encoded date : UTC 2019-05-14 09:58:32
Writing application : mkvmerge v28.2.0 ('The Awakening') 64-bit
Writing library : libebml v1.3.6 + libmatroska v1.4.9
Cover : Yes
Attachments : cover.jpg

Video
ID : 1
Format : AVC
Format/Info : Advanced Video Codec
Format profile : [email protected]
Format settings, CABAC : Yes
Format settings, RefFrames : 5 frames
Codec ID : V_MPEG4/ISO/AVC
Duration : 1 h 56 min
Bit rate : 4 606 kb/s
Width : 1 920 pixels
Height : 804 pixels

Display aspect ratio : 2.40:1
Frame rate mode : Constant
Frame rate : 23.976 (24000/1001) FPS
Color space : YUV
Chroma subsampling : 4:2:0
Bit depth : 8 bits
Scan type : Progressive
Bits/(Pixel*Frame) : 0.124
Stream size : 3.72 GiB (85%)
Title : Modified By [email protected]
Writing library : x264 core 157 r2935 545de2f
Encoding settings : cabac=1 / ref=5 / deblock=1:-1:-1 / analyse=0x3:0x133 / me=umh / subme=9 / psy=1 / psy_rd=1.00:0.15 / mixed_ref=1 / me_range=24 / chroma_me=1 / trellis=2 / 8x8dct=1 / cqm=0 / deadzone=21,11 / fast_pskip=0 / chroma_qp_offset=-3 / threads=12 / lookahead_threads=1 / sliced_threads=0 / nr=200 / decimate=1 / interlaced=0 / bluray_compat=0 / constrained_intra=0 / bframes=3 / b_pyramid=2 / b_adapt=2 / b_bias=0 / direct=3 / weightb=1 / open_gop=0 / weightp=2 / keyint=250 / keyint_min=23 / scenecut=40 / intra_refresh=0 / rc_lookahead=60 / rc=2pass / mbtree=1 / bitrate=4606 / ratetol=1.0 / qcomp=0.60 / qpmin=0 / qpmax=69 / qpstep=4 / cplxblur=20.0 / qblur=0.5 / ip_ratio=1.40 / aq=1:1.00
Language : English
Default : Yes
Forced : No
Color range : Limited
Color primaries : BT.709
Transfer characteristics : BT.709
Matrix coefficients : BT.709

Audio
ID : 2
Format : DTS
Format/Info : Digital Theater Systems
Mode : 16
Format settings, Endianness : Big
Codec ID : A_DTS
Duration : 1 h 56 min
Bit rate mode : Constant
Bit rate : 768 kb/s
Channel(s) : 6 channels
Channel positions : Front: L C R, Side: L R, LFE
Sampling rate : 48.0 kHz
Frame rate : 93.750 FPS (512 SPF)
Bit depth : 24 bits
Compression mode : Lossy
Stream size : 640 MiB (14%)
Title : Eng DTS 5.1
Language : English

Default : Yes
Forced : No

Text #1
ID : 3
Format : PGS
Muxing mode : zlib
Codec ID : S_HDMV/PGS
Codec ID/Info : Picture based subtitle format used on BDs/HD-DVDs
Duration : 1 h 47 min
Bit rate : 41.0 kb/s
Count of elements : 3402
Stream size : 31.4 MiB (1%)
Title : Eng
Language : English
Default : No
Forced : No

Text #2
ID : 4
Format : PGS
Muxing mode : zlib
Codec ID : S_HDMV/PGS
Codec ID/Info : Picture based subtitle format used on BDs/HD-DVDs
Duration : 1 h 55 min
Bit rate : 32.0 kb/s
Count of elements : 3039
Stream size : 26.4 MiB (1%)
Title : Thai PGS BluRay Master
Language : Thai

Default : Yes
Forced : Yes

Text #3
ID : 5
Format : PGS
Muxing mode : zlib
Codec ID : S_HDMV/PGS
Codec ID/Info : Picture based subtitle format used on BDs/HD-DVDs
Duration : 1 h 55 min
Bit rate : 32.0 kb/s
Count of elements : 3032
Stream size : 26.4 MiB (1%)
Title : Thai PGS BluRay Master LOW
Language : Thai
Default : No
Forced : No

Text #4
ID : 6
Format : VobSub
Muxing mode : zlib
Codec ID : S_VOBSUB
Codec ID/Info : Picture based subtitle format used on DVDs
Duration : 1 h 55 min
Bit rate : 8 028 b/s
Count of elements : 1516
Stream size : 6.62 MiB (0%)
Title : Thai 1080p
Language : Thai
Default : No
Forced : No

Text #5
ID : 7
Format : VobSub
Muxing mode : zlib
Codec ID : S_VOBSUB
Codec ID/Info : Picture based subtitle format used on DVDs
Duration : 1 h 55 min
Bit rate : 8 028 b/s
Count of elements : 1516
Stream size : 6.62 MiB (0%)
Title : Thai 1080p LOW
Language : Thai
Default : No
Forced : No

Text #6
ID : 8
Format : VobSub
Muxing mode : zlib
Codec ID : S_VOBSUB
Codec ID/Info : Picture based subtitle format used on DVDs
Duration : 1 h 55 min
Bit rate : 2 658 b/s
Count of elements : 1516
Stream size : 2.19 MiB (0%)
Title : Thai 480p
Language : Thai
Default : No
Forced : No

Text #7
ID : 9
Format : VobSub
Muxing mode : zlib
Codec ID : S_VOBSUB
Codec ID/Info : Picture based subtitle format used on DVDs
Duration : 1 h 55 min
Bit rate : 2 658 b/s
Count of elements : 1516
Stream size : 2.19 MiB (0%)
Title : Thai 480p LOW
Language : Thai
Default : No
Forced : No


★ ☆ ✮Modified By EntHD_ProMaster@enthdmovieclub✮ ☆ ★







Full HD DTS-HD MA 5.1

The.Mule.2018.1080p.BluRay.x264.DTS-HD.MA.5.1-EntHD_ProMaster.mkv
Format : Matroska
Format version : Version 4 / Version 2
File size : 14.3 GiB
Duration : 1 h 56 min
Overall bit rate : 17.6 Mb/s
Movie name : The.Mule.2018.1080p.BluRay.x264.DTS-HD.MA.5.1-EntHD_ProMaster
Encoded date : UTC 2019-05-14 11:27:13
Writing application : mkvmerge v15.0.0 ('Duel with the Devil') 64-bit
Writing library : libebml v1.3.5 + libmatroska v1.4.5
Cover : Yes
Attachments : cover.jpg

Video
ID : 1
Format : AVC
Format/Info : Advanced Video Codec
Format profile : [email protected]
Format settings : CABAC / 5 Ref Frames
Format settings, CABAC : Yes
Format settings, ReFrames : 5 frames
Codec ID : V_MPEG4/ISO/AVC
Duration : 1 h 56 min
Bit rate : 13.4 Mb/s
Width : 1 920 pixels
Height : 804 pixels

Display aspect ratio : 2.40:1
Frame rate mode : Constant
Frame rate : 23.976 (24000/1001) FPS
Color space : YUV
Chroma subsampling : 4:2:0
Bit depth : 8 bits
Scan type : Progressive
Bits/(Pixel*Frame) : 0.362
Stream size : 10.9 GiB (76%)
Title : Modified By [email protected]
Writing library : x264 core 157 r2935 545de2f
Encoding settings : cabac=1 / ref=5 / deblock=1:-1:-1 / analyse=0x3:0x113 / me=umh / subme=11 / psy=1 / psy_rd=1.05:0.05 / mixed_ref=1 / me_range=32 / chroma_me=1 / trellis=2 / 8x8dct=1 / cqm=0 / deadzone=21,11 / fast_pskip=0 / chroma_qp_offset=-3 / threads=9 / lookahead_threads=2 / sliced_threads=0 / nr=0 / decimate=0 / interlaced=0 / bluray_compat=0 / constrained_intra=0 / bframes=11 / b_pyramid=2 / b_adapt=2 / b_bias=0 / direct=3 / weightb=1 / open_gop=0 / weightp=2 / keyint=240 / keyint_min=23 / scenecut=40 / intra_refresh=0 / rc_lookahead=100 / rc=2pass / mbtree=0 / bitrate=13398 / ratetol=1.0 / qcomp=0.70 / qpmin=0 / qpmax=69 / qpstep=4 / cplxblur=20.0 / qblur=0.5 / vbv_maxrate=50000 / vbv_bufsize=62500 / nal_hrd=none / filler=0 / ip_ratio=1.40 / pb_ratio=1.30 / aq=1:0.80
Language : English
Default : Yes
Forced : No

Audio #1
ID : 2
Format : DTS
Format/Info : Digital Theater Systems
Format profile : MA / Core
Codec ID : A_DTS

Duration : 1 h 56 min
Bit rate mode : Variable / Constant
Bit rate : 3 356 kb/s / 1 509 kb/s
Channel(s) : 6 channels

Channel positions : Front: L C R, Side: L R, LFE
Sampling rate : 48.0 kHz
Frame rate : 93.750 FPS (512 SPF)
Bit depth : 24 bits
Compression mode : Lossless / Lossy
Stream size : 2.73 GiB (19%)
Title : Eng DTS-HD MA 5.1
Language : English

Default : Yes
Forced : Yes

Audio #2
ID : 3
Format : DTS
Format/Info : Digital Theater Systems
Codec ID : A_DTS
Duration : 1 h 56 min
Bit rate mode : Constant
Bit rate : 768 kb/s
Channel(s) : 6 channels
Channel positions : Front: L C R, Side: L R, LFE
Sampling rate : 48.0 kHz
Frame rate : 93.750 FPS (512 SPF)
Bit depth : 24 bits
Compression mode : Lossy
Stream size : 640 MiB (4%)
Title : Eng DTS 5.1
Language : English

Default : No
Forced : No

Text #1
ID : 4
Format : PGS
Muxing mode : zlib
Codec ID : S_HDMV/PGS
Codec ID/Info : Picture based subtitle format used on BDs/HD-DVDs
Duration : 1 h 47 min
Bit rate : 41.0 kb/s
Count of elements : 3402
Stream size : 31.4 MiB (0%)
Title : Eng
Language : English
Default : No
Forced : No

Text #2
ID : 5
Format : PGS
Muxing mode : zlib
Codec ID : S_HDMV/PGS
Codec ID/Info : Picture based subtitle format used on BDs/HD-DVDs
Duration : 1 h 55 min
Bit rate : 32.0 kb/s
Count of elements : 3039
Stream size : 26.4 MiB (0%)
Title : Thai PGS BluRay Master
Language : Thai

Default : Yes
Forced : Yes

Text #3
ID : 6
Format : PGS
Muxing mode : zlib
Codec ID : S_HDMV/PGS
Codec ID/Info : Picture based subtitle format used on BDs/HD-DVDs
Duration : 1 h 55 min
Bit rate : 32.0 kb/s
Count of elements : 3032
Stream size : 26.4 MiB (0%)
Title : Thai PGS BluRay Master LOW
Language : Thai
Default : No
Forced : No

Text #4
ID : 7
Format : VobSub
Muxing mode : zlib
Codec ID : S_VOBSUB
Codec ID/Info : Picture based subtitle format used on DVDs
Duration : 1 h 55 min
Bit rate : 8 028 b/s
Count of elements : 1516
Stream size : 6.62 MiB (0%)
Title : Thai 1080p
Language : Thai
Default : No
Forced : No

Text #5
ID : 8
Format : VobSub
Muxing mode : zlib
Codec ID : S_VOBSUB
Codec ID/Info : Picture based subtitle format used on DVDs
Duration : 1 h 55 min
Bit rate : 8 028 b/s
Count of elements : 1516
Stream size : 6.62 MiB (0%)
Title : Thai 1080p LOW
Language : Thai
Default : No
Forced : No

Text #6
ID : 9
Format : VobSub
Muxing mode : zlib
Codec ID : S_VOBSUB
Codec ID/Info : Picture based subtitle format used on DVDs
Duration : 1 h 55 min
Bit rate : 2 658 b/s
Count of elements : 1516
Stream size : 2.19 MiB (0%)
Title : Thai 480p
Language : Thai
Default : No
Forced : No

Text #7
ID : 10
Format : VobSub
Muxing mode : zlib
Codec ID : S_VOBSUB
Codec ID/Info : Picture based subtitle format used on DVDs
Duration : 1 h 55 min
Bit rate : 2 658 b/s
Count of elements : 1516
Stream size : 2.19 MiB (0%)
Title : Thai 480p LOW
Language : Thai
Default : No
Forced : No


★ ☆ ✮Modified By EntHD_ProMaster@enthdmovieclub✮ ☆ ★[/COLOR]






BDRM Remux Full Bitrate


The.Mule.2018.1080p.BluRay.REMUX.AVC.DTS-HD.MA.5.1-EntHD_ProMaster.mkv
Format : Matroska
Format version : Version 4 / Version 2
File size : 29.9 GiB
Duration : 1 h 56 min
Overall bit rate mode : Variable
Overall bit rate : 36.7 Mb/s
Movie name : The.Mule.2018.1080p.BluRay.REMUX.AVC.DTS-HD.MA.5.1-EntHD_ProMaster
Encoded date : UTC 2019-05-14 10:40:12
Writing application : mkvmerge v15.0.0 ('Duel with the Devil') 64-bit
Writing library : libebml v1.3.5 + libmatroska v1.4.5
Cover : Yes
Attachments : cover.jpg

Video
ID : 1
Format : AVC
Format/Info : Advanced Video Codec
Format profile : [email protected]
Format settings : CABAC / 4 Ref Frames
Format settings, CABAC : Yes
Format settings, ReFrames : 4 frames
Format settings, GOP : M=3, N=12
Codec ID : V_MPEG4/ISO/AVC
Duration : 1 h 56 min
Bit rate mode : Variable
Bit rate : 32.5 Mb/s
Maximum bit rate : 36.0 Mb/s
Width : 1 920 pixels
Height : 1 080 pixels

Display aspect ratio : 16:9
Frame rate mode : Constant
Frame rate : 23.976 (24000/1001) FPS
Color space : YUV
Chroma subsampling : 4:2:0
Bit depth : 8 bits
Scan type : Progressive
Bits/(Pixel*Frame) : 0.655
Stream size : 26.5 GiB (89%)
Title : Modified By [email protected]
Language : English
Default : Yes
Forced : No

Audio #1
ID : 2
Format : DTS
Format/Info : Digital Theater Systems
Format profile : MA / Core
Codec ID : A_DTS

Duration : 1 h 56 min
Bit rate mode : Variable / Constant
Bit rate : 3 356 kb/s / 1 509 kb/s
Channel(s) : 6 channels

Channel positions : Front: L C R, Side: L R, LFE
Sampling rate : 48.0 kHz
Frame rate : 93.750 FPS (512 SPF)
Bit depth : 24 bits
Compression mode : Lossless / Lossy
Stream size : 2.73 GiB (9%)
Title : Eng DTS-HD MA 5.1
Language : English

Default : Yes
Forced : Yes

Audio #2
ID : 3
Format : DTS
Format/Info : Digital Theater Systems
Codec ID : A_DTS
Duration : 1 h 56 min
Bit rate mode : Constant
Bit rate : 768 kb/s
Channel(s) : 6 channels
Channel positions : Front: L C R, Side: L R, LFE
Sampling rate : 48.0 kHz
Frame rate : 93.750 FPS (512 SPF)
Bit depth : 24 bits
Compression mode : Lossy
Stream size : 640 MiB (2%)
Title : Eng DTS 5.1
Language : English

Default : No
Forced : No

Text #1
ID : 4
Format : PGS
Muxing mode : zlib
Codec ID : S_HDMV/PGS
Codec ID/Info : Picture based subtitle format used on BDs/HD-DVDs
Duration : 1 h 47 min
Bit rate : 41.0 kb/s
Count of elements : 3402
Stream size : 31.4 MiB (0%)
Title : Eng
Language : English
Default : No
Forced : No

Text #2
ID : 5
Format : PGS
Muxing mode : zlib
Codec ID : S_HDMV/PGS
Codec ID/Info : Picture based subtitle format used on BDs/HD-DVDs
Duration : 1 h 55 min
Bit rate : 32.0 kb/s
Count of elements : 3039
Stream size : 26.4 MiB (0%)
Title : Thai PGS BluRay Master
Language : Thai

Default : Yes
Forced : Yes

Text #3
ID : 6
Format : PGS
Muxing mode : zlib
Codec ID : S_HDMV/PGS
Codec ID/Info : Picture based subtitle format used on BDs/HD-DVDs
Duration : 1 h 55 min
Bit rate : 32.0 kb/s
Count of elements : 3032
Stream size : 26.4 MiB (0%)
Title : Thai PGS BluRay Master LOW
Language : Thai
Default : No
Forced : No

Text #4
ID : 7
Format : VobSub
Muxing mode : zlib
Codec ID : S_VOBSUB
Codec ID/Info : Picture based subtitle format used on DVDs
Duration : 1 h 55 min
Bit rate : 8 028 b/s
Count of elements : 1516
Stream size : 6.62 MiB (0%)
Title : Thai 1080p
Language : Thai
Default : No
Forced : No

Text #5
ID : 8
Format : VobSub
Muxing mode : zlib
Codec ID : S_VOBSUB
Codec ID/Info : Picture based subtitle format used on DVDs
Duration : 1 h 55 min
Bit rate : 8 028 b/s
Count of elements : 1516
Stream size : 6.62 MiB (0%)
Title : Thai 1080p LOW
Language : Thai
Default : No
Forced : No

Text #6
ID : 9
Format : VobSub
Muxing mode : zlib
Codec ID : S_VOBSUB
Codec ID/Info : Picture based subtitle format used on DVDs
Duration : 1 h 55 min
Bit rate : 2 658 b/s
Count of elements : 1516
Stream size : 2.19 MiB (0%)
Title : Thai 480p
Language : Thai
Default : No
Forced : No

Text #7
ID : 10
Format : VobSub
Muxing mode : zlib
Codec ID : S_VOBSUB
Codec ID/Info : Picture based subtitle format used on DVDs
Duration : 1 h 55 min
Bit rate : 2 658 b/s
Count of elements : 1516
Stream size : 2.19 MiB (0%)
Title : Thai 480p LOW
Language : Thai
Default : No
Forced : No


★ ☆ ✮Modified By EntHD_ProMaster@enthdmovieclub✮ ☆ ★


















เป็นเรื่องราวของชายชาวไร่วัย 90 ปี และยังเคยเป็นทหารผ่านศึกในสงครามโลกครั้งที่สอง ในภายหลังได้ผันตัวมาเป็นคนขับรถรับส่งของ แต่เรื่องราวเกิดขึ้นเมื่อเขาถูกจับได้โดยตำรวจของสห รัฐอเมริกา ในขณะที่ขนส่งโคเคนมูลค่า 3 ล้านเหรียญของแก๊งค้ายาเสพติดเม็กซิกัน


---------------------------------------------------------------------------------------------------------------

***ข้อแนะนำในการโหลดไฟล์จากเว็บต่างๆ***

###ควรใช้ IDM ในการโหลด และควรตั้งค่าเริ่มต้นเชื่อมต่อ ตั้งแต่ 8 ขึ้นไป ส่วนในกรณีที่ IDM ไม่ขึ้นตอนกดโหลดให้ติดตั้งส่วนขยายของ IDM ในเบราว์เซอร์ที่ใช้ ##



MiniHD

http://cornfile.com/x1b32jbu1la7


Full HD DTS-HD MA 5.1

http://cornfile.com/zm6s4rcvpiob

BDRM Remux Full Bitrate

http://cornfile.com/1dy4hg07bufr


>>สมัคร VIP cornfile <<

>> วิธีสมัคร VIP cornfile <<


ติดตามอัพเดตเรื่องอื่นๆได้ที่

https://enthdmovieclub.blogspot.com/